Featured TV Shows


Alone Together S01E06

Posted By: Tavaz
1080p (FullHD) / WEB-DL IMDb
Alone Together S01E06

Alone Together S01E06
WEB-DL | MKV | 1920x1080 | English | H264 @ 9062 kbps | E-AC-3 @ 640 kbps | 20 min 30 s | 1.39 GiB
Subtitles: English
Genre: Comedy

Esther and Benji are platonic best friends who want nothing more than to be accepted by the vain and status-obsessed culture of Los Angeles. Despite their sometimes contentious relationship, when push comes to shove, they’ve got each other’s back … And they have nobody else to hang out with.

9251df29f3ea43e591d04049e0965670.mkv (1.4 GB)



General
Unique ID : 337369129603315508000874972451153913323 (0xFDCEEE4F8F584DF0C61A13D493C825EB)
Complete name : ./9251df29f3ea43e591d04049e0965670.mkv
Format : Matroska
Format version : Version 4 / Version 2
File size : 1.39 GiB
Duration : 20 min 30 s
Overall bit rate mode : Variable
Overall bit rate : 9 705 kb/s
Encoded date : UTC 2018-02-16 22:55:17
Writing application : mkvmerge v19.0.0 ('Brave Captain') 64-bit
Writing library : libebml v1.3.5 + libmatroska v1.4.8

Video
ID : 1
Format : AVC
Format/Info : Advanced Video Codec
Format profile : High@L4
Format settings : CABAC / 4 Ref Frames
Format settings, CABAC : Yes
Format settings, RefFrames : 4 frames
Codec ID : V_MPEG4/ISO/AVC
Duration : 20 min 30 s
Bit rate mode : Variable
Bit rate : 9 063 kb/s
Maximum bit rate : 15.0 Mb/s
Width : 1 920 pixels
Height : 1 080 pixels
Display aspect ratio : 16:9
Frame rate mode : Constant
Frame rate : 23.976 (24000/1001) FPS
Color space : YUV
Chroma subsampling : 4:2:0
Bit depth : 8 bits
Scan type : Progressive
Bits/(Pixel*Frame) : 0.182
Stream size : 1.30 GiB (93%)
Default : Yes
Forced : No
Color range : Limited
Color primaries : BT.709
Transfer characteristics : BT.709
Matrix coefficients : BT.709

Audio
ID : 2
Format : E-AC-3
Format/Info : Enhanced Audio Coding 3
Format settings, Endianness : Big
Codec ID : A_EAC3
Duration : 20 min 30 s
Bit rate mode : Constant
Bit rate : 640 kb/s
Channel(s) : 6 channels
Channel positions : Front: L C R, Side: L R, LFE
Sampling rate : 48.0 kHz
Frame rate : 187.500 FPS (256 SPF)
Compression mode : Lossy
Stream size : 93.9 MiB (7%)
Language : English
Service kind : Complete Main
Default : Yes
Forced : No

Text #1
ID : 3
Format : UTF-8
Codec ID : S_TEXT/UTF8
Codec ID/Info : UTF-8 Plain Text
Duration : 20 min 29 s
Bit rate : 134 b/s
Count of elements : 550
Stream size : 20.2 KiB (0%)
Language : English
Default : No
Forced : No

Text #2
ID : 4
Format : UTF-8
Codec ID : S_TEXT/UTF8
Codec ID/Info : UTF-8 Plain Text
Duration : 20 min 29 s
Bit rate : 138 b/s
Count of elements : 555
Stream size : 20.7 KiB (0%)
Title : SDH
Language : English
Default : No
Forced : No





Alone Together S01E06


Alone Together S01E06


Alone Together S01E06


Alone Together S01E06


Alone Together S01E06

All episodes