Featured TV Shows


Alone Together S01E09

Posted By: Tavaz
1080p (FullHD) / WEBRip IMDb
Alone Together S01E09

Alone Together S01E09
WEBRip | MKV | 1920x1080 | English | H264 @ 8730 kbps | E-AC-3 @ 640 kbps | 20 min 23 s | 1.34 GiB
Subtitles: English
Genre: Comedy

Esther and Benji are platonic best friends who want nothing more than to be accepted by the vain and status-obsessed culture of Los Angeles. Despite their sometimes contentious relationship, when push comes to shove, they’ve got each other’s back … And they have nobody else to hang out with.

Alone.Together.S01E09.Music.Video.1080p.AMZN.WEB-DL.DDP5.1.H.264-NTb.mkv (1.3 GB)



General
Unique ID : 157136430919353522544393257511830534534 (0x76376032363B5D4CB25B2CC299A9B986)
Complete name : ./Alone.Together.S01E09.Music.Video.1080p.AMZN.WEB-DL.DDP5.1.H.264-NTb.mkv
Format : Matroska
Format version : Version 4 / Version 2
File size : 1.34 GiB
Duration : 20 min 23 s
Overall bit rate mode : Variable
Overall bit rate : 9 373 kb/s
Encoded date : UTC 2018-04-08 17:27:39
Writing application : mkvmerge v21.0.0 ('Tardigrades Will Inherit The Earth') 64-bit
Writing library : libebml v1.3.5 + libmatroska v1.4.8

Video
ID : 1
Format : AVC
Format/Info : Advanced Video Codec
Format profile : High@L4
Format settings : CABAC / 4 Ref Frames
Format settings, CABAC : Yes
Format settings, RefFrames : 4 frames
Codec ID : V_MPEG4/ISO/AVC
Duration : 20 min 23 s
Bit rate mode : Variable
Bit rate : 8 731 kb/s
Maximum bit rate : 15.0 Mb/s
Width : 1 920 pixels
Height : 1 080 pixels
Display aspect ratio : 16:9
Frame rate mode : Constant
Frame rate : 23.976 (24000/1001) FPS
Color space : YUV
Chroma subsampling : 4:2:0
Bit depth : 8 bits
Scan type : Progressive
Bits/(Pixel*Frame) : 0.176
Stream size : 1.24 GiB (93%)
Default : Yes
Forced : No
Color range : Limited
Color primaries : BT.709
Transfer characteristics : BT.709
Matrix coefficients : BT.709

Audio
ID : 2
Format : E-AC-3
Format/Info : Enhanced Audio Coding 3
Format settings, Endianness : Big
Codec ID : A_EAC3
Duration : 20 min 23 s
Bit rate mode : Constant
Bit rate : 640 kb/s
Channel(s) : 6 channels
Channel positions : Front: L C R, Side: L R, LFE
Sampling rate : 48.0 kHz
Frame rate : 187.500 FPS (256 SPF)
Compression mode : Lossy
Stream size : 93.4 MiB (7%)
Language : English
Service kind : Complete Main
Default : Yes
Forced : No

Text #1
ID : 3
Format : UTF-8
Codec ID : S_TEXT/UTF8
Codec ID/Info : UTF-8 Plain Text
Duration : 20 min 20 s
Bit rate : 126 b/s
Count of elements : 489
Stream size : 18.8 KiB (0%)
Language : English
Default : No
Forced : No

Text #2
ID : 4
Format : UTF-8
Codec ID : S_TEXT/UTF8
Codec ID/Info : UTF-8 Plain Text
Duration : 20 min 20 s
Bit rate : 128 b/s
Count of elements : 497
Stream size : 19.2 KiB (0%)
Title : SDH
Language : English
Default : No
Forced : No





Alone Together S01E09


Alone Together S01E09


Alone Together S01E09


Alone Together S01E09


Alone Together S01E09

All episodes