Featured TV Shows


Alone Together S02E02

Posted By: Tavaz
1080p (FullHD) / WEB-DL IMDb
Alone Together S02E02

Alone Together S02E02
WEB-DL | MKV | 1920x1080 | English | H264 @ 9236 kbps | E-AC-3 @ 640 kbps | 20 min 26 s | 1.41 GiB
Subtitles: English
Genre: Comedy

Esther and Benji are platonic best friends who want nothing more than to be accepted by the vain and status-obsessed culture of Los Angeles. Despite their sometimes contentious relationship, when push comes to shove, they’ve got each other’s back … And they have nobody else to hang out with.

650baeca0a414665bdfa3be46bf4f95f.mkv (1.4 GB)



General
Unique ID : 319674309138721533112653491332321513236 (0xF07F084E21119C4D738CC19406B20F14)
Complete name : ./650baeca0a414665bdfa3be46bf4f95f.mkv
Format : Matroska
Format version : Version 4 / Version 2
File size : 1.41 GiB
Duration : 20 min 26 s
Overall bit rate mode : Variable
Overall bit rate : 9 879 kb/s
Encoded date : UTC 2018-08-03 16:42:23
Writing application : mkvmerge v24.0.0 ('Beyond The Pale') 64-bit
Writing library : libebml v1.3.6 + libmatroska v1.4.9

Video
ID : 1
Format : AVC
Format/Info : Advanced Video Codec
Format profile : High@L4
Format settings : CABAC / 4 Ref Frames
Format settings, CABAC : Yes
Format settings, RefFrames : 4 frames
Codec ID : V_MPEG4/ISO/AVC
Duration : 20 min 26 s
Bit rate mode : Variable
Bit rate : 9 236 kb/s
Maximum bit rate : 15.0 Mb/s
Width : 1 920 pixels
Height : 1 080 pixels
Display aspect ratio : 16:9
Frame rate mode : Constant
Frame rate : 23.976 (24000/1001) FPS
Color space : YUV
Chroma subsampling : 4:2:0
Bit depth : 8 bits
Scan type : Progressive
Bits/(Pixel*Frame) : 0.186
Stream size : 1.32 GiB (93%)
Default : Yes
Forced : No
Color range : Limited
Color primaries : BT.709
Transfer characteristics : BT.709
Matrix coefficients : BT.709

Audio
ID : 2
Format : E-AC-3
Format/Info : Enhanced Audio Coding 3
Format settings, Endianness : Big
Codec ID : A_EAC3
Duration : 20 min 26 s
Bit rate mode : Constant
Bit rate : 640 kb/s
Channel(s) : 6 channels
Channel positions : Front: L C R, Side: L R, LFE
Sampling rate : 48.0 kHz
Frame rate : 187.500 FPS (256 SPF)
Compression mode : Lossy
Stream size : 93.6 MiB (6%)
Language : English
Service kind : Complete Main
Default : Yes
Forced : No

Text
ID : 3
Format : UTF-8
Codec ID : S_TEXT/UTF8
Codec ID/Info : UTF-8 Plain Text
Duration : 20 min 24 s
Bit rate : 116 b/s
Count of elements : 479
Stream size : 17.5 KiB (0%)
Title : SDH
Language : English
Default : No
Forced : No





Alone Together S02E02


Alone Together S02E02


Alone Together S02E02


Alone Together S02E02


Alone Together S02E02

All episodes