Featured TV Shows


Alone Together S02E03

Posted By: Tavaz
1080p (FullHD) / WEB-DL IMDb
Alone Together S02E03

Alone Together S02E03
WEB-DL | MKV | 1920x1080 | English | H264 @ 6512 kbps | E-AC-3 @ 640 kbps | 20 min 51 s | 1.04 GiB
Subtitles: English
Genre: Comedy

Esther and Benji are platonic best friends who want nothing more than to be accepted by the vain and status-obsessed culture of Los Angeles. Despite their sometimes contentious relationship, when push comes to shove, they’ve got each other’s back … And they have nobody else to hang out with.

7ffff1e5e06d4742b7f35d5dff098195.mkv (1.0 GB)



General
Unique ID : 216165355064331398154589569729972295381 (0xA29FEEDAC6885E7679FF79806F3A56D5)
Complete name : ./7ffff1e5e06d4742b7f35d5dff098195.mkv
Format : Matroska
Format version : Version 4 / Version 2
File size : 1.04 GiB
Duration : 20 min 51 s
Overall bit rate mode : Variable
Overall bit rate : 7 154 kb/s
Encoded date : UTC 2018-08-10 22:12:25
Writing application : mkvmerge v24.0.0 ('Beyond The Pale') 64-bit
Writing library : libebml v1.3.6 + libmatroska v1.4.9

Video
ID : 1
Format : AVC
Format/Info : Advanced Video Codec
Format profile : High@L4
Format settings : CABAC / 4 Ref Frames
Format settings, CABAC : Yes
Format settings, RefFrames : 4 frames
Codec ID : V_MPEG4/ISO/AVC
Duration : 20 min 51 s
Bit rate mode : Variable
Bit rate : 6 512 kb/s
Maximum bit rate : 15.0 Mb/s
Width : 1 920 pixels
Height : 1 080 pixels
Display aspect ratio : 16:9
Frame rate mode : Constant
Frame rate : 23.976 (24000/1001) FPS
Color space : YUV
Chroma subsampling : 4:2:0
Bit depth : 8 bits
Scan type : Progressive
Bits/(Pixel*Frame) : 0.131
Stream size : 972 MiB (91%)
Default : Yes
Forced : No
Color range : Limited
Color primaries : BT.709
Transfer characteristics : BT.709
Matrix coefficients : BT.709

Audio
ID : 2
Format : E-AC-3
Format/Info : Enhanced Audio Coding 3
Format settings, Endianness : Big
Codec ID : A_EAC3
Duration : 20 min 51 s
Bit rate mode : Constant
Bit rate : 640 kb/s
Channel(s) : 6 channels
Channel positions : Front: L C R, Side: L R, LFE
Sampling rate : 48.0 kHz
Frame rate : 187.500 FPS (256 SPF)
Compression mode : Lossy
Stream size : 95.5 MiB (9%)
Language : English
Service kind : Complete Main
Default : Yes
Forced : No

Text
ID : 3
Format : UTF-8
Codec ID : S_TEXT/UTF8
Codec ID/Info : UTF-8 Plain Text
Duration : 20 min 40 s
Bit rate : 128 b/s
Count of elements : 533
Stream size : 19.5 KiB (0%)
Title : SDH
Language : English
Default : No
Forced : No





Alone Together S02E03


Alone Together S02E03


Alone Together S02E03


Alone Together S02E03


Alone Together S02E03

All episodes