Please register here if you want to download anything!

If domain in your address bar is different from the list below
PLEASE LEAVE THAT SITE IMMEDIATELY
❗IT'S A DANGEROUS FAKE❗



Spicy Magazines for Men! ;-)

Featured TV Shows


Ambitions S01E09

Posted By: Tavaz
1080p (FullHD) / WEBRip IMDb
Ambitions S01E09

Ambitions S01E09
WEBRip | MKV | 1920x1080 | English | H264 @ 7907 kbps | E-AC-3 @ 640 kbps | 42 min 34 s | 2.54 GiB
Subtitles: English
Genre: Drama


A multigenerational family saga centered around one woman who, having recently relocated and intent on revitalizing her marriage, finds herself going head to head with some of the most powerful and deceitful players in the city.

ae6a188cb2a74470b59112760d903153.mkv (2.5 GB)



General
Unique ID : 81198754069616703824534250578943232873 (0x3D164FAA35F8319F893874A5BE354B69)
Complete name : ./ae6a188cb2a74470b59112760d903153.mkv
Format : Matroska
Format version : Version 4 / Version 2
File size : 2.54 GiB
Duration : 42 min 34 s
Overall bit rate : 8 550 kb/s
Encoded date : UTC 2019-08-14 07:39:41
Writing application : mkvmerge v33.1.0 ('Primrose') 64-bit
Writing library : libebml v1.3.7 + libmatroska v1.5.0

Video
ID : 1
Format : AVC
Format/Info : Advanced Video Codec
Format profile : High@L4
Format settings : CABAC / 4 Ref Frames
Format settings, CABAC : Yes
Format settings, RefFrames : 4 frames
Codec ID : V_MPEG4/ISO/AVC
Duration : 42 min 34 s
Bit rate mode : Constant
Bit rate : 7 908 kb/s
Nominal bit rate : 10 000 kb/s
Width : 1 920 pixels
Height : 1 080 pixels
Display aspect ratio : 16:9
Frame rate mode : Constant
Frame rate : 23.976 (24000/1001) FPS
Color space : YUV
Chroma subsampling : 4:2:0
Bit depth : 8 bits
Scan type : Progressive
Bits/(Pixel*Frame) : 0.159
Stream size : 2.35 GiB (92%)
Language : English
Default : Yes
Forced : No
Color range : Limited
Color primaries : BT.709
Transfer characteristics : BT.709
Matrix coefficients : BT.709

Audio
ID : 2
Format : E-AC-3
Format/Info : Enhanced Audio Coding 3
Format settings, Endianness : Big
Codec ID : A_EAC3
Duration : 42 min 34 s
Bit rate mode : Constant
Bit rate : 640 kb/s
Channel(s) : 6 channels
Channel positions : Front: L C R, Side: L R, LFE
Sampling rate : 48.0 kHz
Frame rate : 187.500 FPS (256 SPF)
Compression mode : Lossy
Stream size : 195 MiB (7%)
Language : English
Service kind : Complete Main
Default : Yes
Forced : No

Text
ID : 3
Format : UTF-8
Codec ID : S_TEXT/UTF8
Codec ID/Info : UTF-8 Plain Text
Duration : 42 min 30 s
Bit rate : 95 b/s
Count of elements : 942
Stream size : 29.8 KiB (0%)
Title : English
Language : English
Default : No
Forced : No





Ambitions S01E09


Ambitions S01E09


Ambitions S01E09


Ambitions S01E09


Ambitions S01E09

All episodes