American Gods S02E06

Posted By: Tavaz
720p (HD) / WEBRip IMDb
American Gods S02E06

American Gods S02E06
WEB-DL | MKV | 1280x720 | German / English | H264 @ 4238 kbps | E-AC-3 @ 640 kbps | 52 min 50 s | 2.08 GiB
Subtitles: German, English
Genre: Drama, Mystery


Ein Sturm zieht auf, als Shadow Moon aus dem Gefängnis kommt und auf den geheimnisvollen Mr. Wednesday trifft. Freigelassen wegen des Todes seiner Frau, nimmt Shadow eine Stelle als Wednesdays Bodyguard an. Dort findet er sich in einer verborgenen Welt wieder, in der Magie ganz real ist und in der die alten Götter nichts mehr als ihre Unbedeutsamkeit und die aufsteigenden neuen Götter fürchten.

AG S02E06 HD.mkv (2.1 GB)



General
Unique ID : 252570128439754772830451752865778760281 (0xBE033CC271C13A9F46150F7C9DB9FA59)
Complete name : ./AmGo S02E06 GermanDL HD/AG S02E06 HD.mkv
Format : Matroska
Format version : Version 4 / Version 2
File size : 2.08 GiB
Duration : 52 min 50 s
Overall bit rate : 5 631 kb/s
Writing application : mkvmerge v30.1.0 ('Forever And More') 64-bit
Writing library : libebml v1.3.6 + libmatroska v1.4.9

Video
ID : 1
Format : AVC
Format/Info : Advanced Video Codec
Format profile : High@L3.1
Format settings : CABAC / 4 Ref Frames
Format settings, CABAC : Yes
Format settings, RefFrames : 4 frames
Codec ID : V_MPEG4/ISO/AVC
Duration : 52 min 50 s
Bit rate mode : Constant
Bit rate : 4 239 kb/s
Nominal bit rate : 6 000 kb/s
Width : 1 280 pixels
Height : 720 pixels
Display aspect ratio : 16:9
Frame rate mode : Constant
Frame rate : 23.976 (24000/1001) FPS
Color space : YUV
Chroma subsampling : 4:2:0
Bit depth : 8 bits
Scan type : Progressive
Bits/(Pixel*Frame) : 0.192
Stream size : 1.56 GiB (75%)
Default : Yes
Forced : No
Color range : Limited
Color primaries : BT.709
Transfer characteristics : BT.709
Matrix coefficients : BT.709

Audio #1
ID : 2
Format : E-AC-3
Format/Info : Enhanced Audio Coding 3
Format settings, Endianness : Big
Codec ID : A_EAC3
Duration : 52 min 50 s
Bit rate mode : Constant
Bit rate : 640 kb/s
Channel(s) : 6 channels
Channel positions : Front: L C R, Side: L R, LFE
Sampling rate : 48.0 kHz
Frame rate : 187.500 FPS (256 SPF)
Compression mode : Lossy
Stream size : 242 MiB (11%)
Title : Deutsch
Language : German
Service kind : Complete Main
Default : Yes
Forced : No

Audio #2
ID : 3
Format : E-AC-3
Format/Info : Enhanced Audio Coding 3
Format settings, Endianness : Big
Codec ID : A_EAC3
Duration : 52 min 50 s
Bit rate mode : Constant
Bit rate : 640 kb/s
Channel(s) : 6 channels
Channel positions : Front: L C R, Side: L R, LFE
Sampling rate : 48.0 kHz
Frame rate : 187.500 FPS (256 SPF)
Compression mode : Lossy
Stream size : 242 MiB (11%)
Title : English
Language : English
Service kind : Complete Main
Default : No
Forced : No

Text #1
ID : 4
Format : UTF-8
Codec ID : S_TEXT/UTF8
Codec ID/Info : UTF-8 Plain Text
Title : Deutsch
Language : German
Default : No
Forced : No

Text #2
ID : 5
Format : UTF-8
Codec ID : S_TEXT/UTF8
Codec ID/Info : UTF-8 Plain Text
Title : English
Language : English
Default : No
Forced : No





American Gods S02E06


American Gods S02E06


American Gods S02E06


American Gods S02E06


American Gods S02E06

All episodes