Index
# A B C D E F G H I J K L M N O P Q R S T U V W Y Z
Tags
Language
Tags

Featured TV Shows


American Horror Story S02E10

Posted By: Tavaz
American Horror Story S02E10

American Horror Story S02E10
MKV | 1276x720 | English | H264 @ 2200 kbps | AC-3 @ 384 kbps | 39 min 54 s | 738 MiB
Subtitles: English
Genre: Drama, Mystery


An anthology horror drama series centering on different characters and locations, including a house with a murderous past, an asylum, a witch coven, a freak show, a hotel, a farmhouse in Roanoke and a cult.

aeba4e71cdfb4f0788572b32c773d9cc.mkv (737.6 MB)



General
Unique ID : 245085472851947589966450121199599585126 (0xB861BEBF8732712A9C78DB0D44798766)
Complete name : ./aeba4e71cdfb4f0788572b32c773d9cc.mkv
Format : Matroska
Format version : Version 4 / Version 2
File size : 738 MiB
Duration : 39 min 54 s
Overall bit rate mode : Variable
Overall bit rate : 2 584 kb/s
Movie name : American Horror Story S02E10 720p BluRay DTS x264-TayTO
Encoded date : UTC 2016-08-24 04:26:24
Writing application : mkvmerge v9.3.1 ('Mask Machine') 32bit
Writing library : libebml v1.3.4 + libmatroska v1.4.5

Video
ID : 1
Format : AVC
Format/Info : Advanced Video Codec
Format profile : High@L4.1
Format settings : CABAC / 5 Ref Frames
Format settings, CABAC : Yes
Format settings, RefFrames : 5 frames
Codec ID : V_MPEG4/ISO/AVC
Duration : 39 min 54 s
Bit rate mode : Variable
Bit rate : 2 200 kb/s
Maximum bit rate : 62.5 Mb/s
Width : 1 276 pixels
Height : 720 pixels
Display aspect ratio : 16:9
Frame rate mode : Constant
Frame rate : 23.976 (24000/1001) FPS
Color space : YUV
Chroma subsampling : 4:2:0
Bit depth : 8 bits
Scan type : Progressive
Bits/(Pixel*Frame) : 0.100
Stream size : 627 MiB (85%)
Writing library : x264 core 148 r2694 3b70645
Encoding settings : cabac=1 / ref=5 / deblock=1:-1:-1 / analyse=0x3:0x113 / me=umh / subme=8 / psy=1 / psy_rd=1.00:0.15 / mixed_ref=1 / me_range=16 / chroma_me=1 / trellis=1 / 8x8dct=1 / cqm=0 / deadzone=21,11 / fast_pskip=1 / chroma_qp_offset=-3 / threads=18 / lookahead_threads=3 / sliced_threads=0 / nr=0 / decimate=1 / interlaced=0 / bluray_compat=0 / constrained_intra=0 / bframes=3 / b_pyramid=2 / b_adapt=2 / b_bias=0 / direct=3 / weightb=1 / open_gop=0 / weightp=2 / keyint=240 / keyint_min=24 / scenecut=40 / intra_refresh=0 / rc_lookahead=50 / rc=2pass / mbtree=1 / bitrate=2200 / ratetol=1.0 / qcomp=0.60 / qpmin=0 / qpmax=69 / qpstep=4 / cplxblur=20.0 / qblur=0.5 / vbv_maxrate=62500 / vbv_bufsize=62500 / nal_hrd=vbr / filler=0 / ip_ratio=1.40 / aq=1:1.00
Default : Yes
Forced : No

Audio
ID : 2
Format : AC-3
Format/Info : Audio Coding 3
Format settings, Endianness : Big
Codec ID : A_AC3
Duration : 39 min 54 s
Bit rate mode : Constant
Bit rate : 384 kb/s
Channel(s) : 6 channels
Channel positions : Front: L C R, Side: L R, LFE
Sampling rate : 48.0 kHz
Frame rate : 31.250 FPS (1536 SPF)
Bit depth : 16 bits
Compression mode : Lossy
Stream size : 110 MiB (15%)
Language : English
Service kind : Complete Main
Default : Yes
Forced : No

Text
ID : 3
Format : UTF-8
Codec ID : S_TEXT/UTF8
Codec ID/Info : UTF-8 Plain Text
Duration : 39 min 0 s
Bit rate : 69 b/s
Count of elements : 637
Stream size : 19.8 KiB (0%)
Language : English
Default : Yes
Forced : No

Menu
00:00:00.000 : en:00:00:00.000
00:04:34.441 : en:00:04:34.441
00:09:48.296 : en:00:09:48.296
00:13:05.660 : en:00:13:05.660
00:15:28.678 : en:00:15:28.678
00:19:30.711 : en:00:19:30.711
00:21:50.017 : en:00:21:50.017
00:24:37.184 : en:00:24:37.184
00:25:56.180 : en:00:25:56.180
00:30:43.300 : en:00:30:43.300
00:32:40.125 : en:00:32:40.125
00:35:11.484 : en:00:35:11.484





American Horror Story S02E10


American Horror Story S02E10


American Horror Story S02E10


American Horror Story S02E10


American Horror Story S02E10

All episodes