Index
# A B C D E F G H I J K L M N O P Q R S T U V W Y Z
Tags
Language
Tags

Featured TV Shows


American Horror Story S02E12

Posted By: Tavaz
1080p (FullHD) / WEB-DL IMDb
American Horror Story S02E12

American Horror Story S02E12
WEB-DL | MKV | 1912x1072 | English | H264 @ 4853 kbps | AC-3 @ 384 kbps | 45 min 19 s | 1.69 GiB
Genre: Drama, Mystery


An anthology horror drama series centering on different characters and locations, including a house with a murderous past, an asylum, a witch coven, a freak show, a hotel, a farmhouse in Roanoke and a cult.

f367df9cb68449809f304be33bcde270.mkv (1.7 GB)



General
Unique ID : 203480450732305206971904053961765429041 (0x9914E8C8F39263CB82C788678EDC1F31)
Complete name : ./f367df9cb68449809f304be33bcde270.mkv
Format : Matroska
Format version : Version 2
File size : 1.69 GiB
Duration : 45 min 19 s
Overall bit rate : 5 344 kb/s
Encoded date : UTC 2013-01-17 14:04:36
Writing application : mkvmerge v5.8.0 ('No Sleep / Pillow') built on Sep 2 2012 15:37:04
Writing library : libebml v1.2.3 + libmatroska v1.3.0

Video
ID : 1
Format : AVC
Format/Info : Advanced Video Codec
Format profile : High@L4
Format settings : CABAC / 4 Ref Frames
Format settings, CABAC : Yes
Format settings, RefFrames : 4 frames
Codec ID : V_MPEG4/ISO/AVC
Duration : 45 min 19 s
Bit rate : 4 854 kb/s
Width : 1 912 pixels
Height : 1 072 pixels
Display aspect ratio : 16:9
Frame rate mode : Constant
Frame rate : 23.976 FPS
Color space : YUV
Chroma subsampling : 4:2:0
Bit depth : 8 bits
Scan type : Progressive
Bits/(Pixel*Frame) : 0.099
Stream size : 1.54 GiB (91%)
Language : English
Default : Yes
Forced : No
Color range : Limited
Color primaries : BT.709
Transfer characteristics : BT.709
Matrix coefficients : BT.709

Audio
ID : 2
Format : AC-3
Format/Info : Audio Coding 3
Format settings, Endianness : Big
Codec ID : A_AC3
Duration : 45 min 19 s
Bit rate mode : Constant
Bit rate : 384 kb/s
Channel(s) : 6 channels
Channel positions : Front: L C R, Side: L R, LFE
Sampling rate : 48.0 kHz
Frame rate : 31.250 FPS (1536 SPF)
Bit depth : 16 bits
Compression mode : Lossy
Stream size : 124 MiB (7%)
Language : English
Service kind : Complete Main
Default : Yes
Forced : No





American Horror Story S02E12


American Horror Story S02E12


American Horror Story S02E12


American Horror Story S02E12


American Horror Story S02E12

All episodes