Index
# A B C D E F G H I J K L M N O P Q R S T U V W Y Z
Tags
Language
Tags

Featured TV Shows


American Horror Story S03E02

Posted By: Tavaz
1080p (FullHD) / BDRip IMDb
American Horror Story S03E02

American Horror Story S03E02
BluRay Remux | MKV | 1920x1080 | English | H264 @ 26293 kbps | DTS | 42 min 47 s | 9.08 GiB
Subtitles: Deutsch, Español, Français, English
Genre: Drama, Mystery


An anthology horror drama series centering on different characters and locations, including a house with a murderous past, an asylum, a witch coven, a freak show, a hotel, a farmhouse in Roanoke and a cult.

American.Horror.Story.S03E02.Boy.Parts.1080p.BluRay.REMUX.AVC.DTS-HD.MA.5.1-EPSiLON.part1.rar (4.8 GB)
American.Horror.Story.S03E02.Boy.Parts.1080p.BluRay.REMUX.AVC.DTS-HD.MA.5.1-EPSiLON.part2.rar (4.4 GB)



General
Unique ID : 119703875032178611762321230402125335374 (0x5A0E20B376289457085274C193448B4E)
Complete name : ./American.Horror.Story.S03E02.Boy.Parts.1080p.BluRay.REMUX.AVC.DTS-HD.MA.5.1-EPSiLON.mkv
Format : Matroska
Format version : Version 4 / Version 2
File size : 9.08 GiB
Duration : 42 min 47 s
Overall bit rate mode : Variable
Overall bit rate : 30.4 Mb/s
Encoded date : UTC 2017-05-22 12:02:22
Writing application : mkvmerge v12.0.0 ('Trust / Lust') 64bit
Writing library : libebml v1.3.4 + libmatroska v1.4.5

Video
ID : 1
Format : AVC
Format/Info : Advanced Video Codec
Format profile : High@L4.1
Format settings : CABAC / 4 Ref Frames
Format settings, CABAC : Yes
Format settings, RefFrames : 4 frames
Codec ID : V_MPEG4/ISO/AVC
Duration : 42 min 47 s
Bit rate mode : Variable
Bit rate : 26.3 Mb/s
Maximum bit rate : 37.0 Mb/s
Width : 1 920 pixels
Height : 1 080 pixels
Display aspect ratio : 16:9
Frame rate mode : Constant
Frame rate : 23.976 (24000/1001) FPS
Color space : YUV
Chroma subsampling : 4:2:0
Bit depth : 8 bits
Scan type : Progressive
Bits/(Pixel*Frame) : 0.529
Stream size : 7.86 GiB (87%)
Title : MPEG-4 AVC Video / 26489 kbps / 1080p / 23.976 fps / 16:9 / High Profile 4.1
Language : English
Default : Yes
Forced : No

Audio
ID : 2
Format : DTS
Format/Info : Digital Theater Systems
Format profile : MA / Core
Mode : 16
Format settings, Endianness : Big
Codec ID : A_DTS
Duration : 42 min 47 s
Bit rate mode : Variable / Constant
Bit rate : 3 840 kb/s / 1 509 kb/s
Channel(s) : 6 channels
Channel positions : Front: L C R, Side: L R, LFE
Sampling rate : 48.0 kHz
Frame rate : 93.750 FPS (512 SPF)
Bit depth : 24 bits
Compression mode : Lossless / Lossy
Stream size : 1.17 GiB (13%)
Title : DTS-HD Master Audio / 5.1 / 48 kHz / 3909 kbps / 24-bit
Language : English
Default : Yes
Forced : No

Text #1
ID : 3
Format : PGS
Codec ID : S_HDMV/PGS
Codec ID/Info : Picture based subtitle format used on BDs/HD-DVDs
Duration : 41 min 23 s
Bit rate : 41.9 kb/s
Count of elements : 1184
Stream size : 12.4 MiB (0%)
Title : SDH
Language : English
Default : No
Forced : No

Text #2
ID : 4
Format : PGS
Codec ID : S_HDMV/PGS
Codec ID/Info : Picture based subtitle format used on BDs/HD-DVDs
Duration : 42 min 22 s
Bit rate : 37.1 kb/s
Count of elements : 1008
Stream size : 11.3 MiB (0%)
Language : Spanish
Default : No
Forced : No

Text #3
ID : 5
Format : PGS
Codec ID : S_HDMV/PGS
Codec ID/Info : Picture based subtitle format used on BDs/HD-DVDs
Duration : 42 min 22 s
Bit rate : 33.5 kb/s
Count of elements : 976
Stream size : 10.2 MiB (0%)
Language : French
Default : No
Forced : No

Text #4
ID : 6
Format : PGS
Codec ID : S_HDMV/PGS
Codec ID/Info : Picture based subtitle format used on BDs/HD-DVDs
Duration : 42 min 22 s
Bit rate : 33.5 kb/s
Count of elements : 980
Stream size : 10.2 MiB (0%)
Language : French
Default : No
Forced : No

Text #5
ID : 7
Format : PGS
Codec ID : S_HDMV/PGS
Codec ID/Info : Picture based subtitle format used on BDs/HD-DVDs
Duration : 42 min 22 s
Bit rate : 39.3 kb/s
Count of elements : 1006
Stream size : 11.9 MiB (0%)
Language : German
Default : No
Forced : No

Menu
00:00:00.000 : en:Chapter 1
00:03:26.665 : en:Chapter 2
00:05:49.641 : en:Chapter 3
00:12:51.396 : en:Chapter 4
00:15:21.170 : en:Chapter 5
00:21:03.929 : en:Chapter 6
00:27:08.627 : en:Chapter 7
00:28:16.987 : en:Chapter 8
00:31:38.730 : en:Chapter 9
00:34:02.707 : en:Chapter 10
00:35:23.872 : en:Chapter 11
00:38:53.581 : en:Chapter 12





American Horror Story S03E02


American Horror Story S03E02


American Horror Story S03E02


American Horror Story S03E02


American Horror Story S03E02

All episodes