Index
# A B C D E F G H I J K L M N O P Q R S T U V W Y Z
Tags
Language
Tags

Featured TV Shows


American Horror Story S03E10

Posted By: Tavaz
1080p (FullHD) / BDRip IMDb
American Horror Story S03E10

American Horror Story S03E10
BluRay Remux | MKV | 1920x1080 | English | H264 @ 18843 kbps | DTS | 47 min 10 s | 7.49 GiB
Subtitles: Deutsch, Español, Français, English
Genre: Drama, Mystery


An anthology horror drama series centering on different characters and locations, including a house with a murderous past, an asylum, a witch coven, a freak show, a hotel, a farmhouse in Roanoke and a cult.

American.Horror.Story.S03E10.The.Magical.Delights.of.Stevie.Nicks.1080p.BluRay.REMUX.AVC.DTS-HD.MA.5.1-EPSiLON.mkv (7.5 GB)



General
Unique ID : 225806098764615236511805533317654640967 (0xA9E0AC379D33E5A553B23E27D8A7F947)
Complete name : ./American.Horror.Story.S03E10.The.Magical.Delights.of.Stevie.Nicks.1080p.BluRay.REMUX.AVC.DTS-HD.MA.5.1-EPSiLON.mkv
Format : Matroska
Format version : Version 4 / Version 2
File size : 7.49 GiB
Duration : 47 min 10 s
Overall bit rate mode : Variable
Overall bit rate : 22.7 Mb/s
Encoded date : UTC 2017-05-22 12:36:29
Writing application : mkvmerge v12.0.0 ('Trust / Lust') 64bit
Writing library : libebml v1.3.4 + libmatroska v1.4.5

Video
ID : 1
Format : AVC
Format/Info : Advanced Video Codec
Format profile : High@L4.1
Format settings : CABAC / 4 Ref Frames
Format settings, CABAC : Yes
Format settings, RefFrames : 4 frames
Codec ID : V_MPEG4/ISO/AVC
Duration : 47 min 10 s
Bit rate mode : Variable
Bit rate : 18.8 Mb/s
Maximum bit rate : 37.0 Mb/s
Width : 1 920 pixels
Height : 1 080 pixels
Display aspect ratio : 16:9
Frame rate mode : Constant
Frame rate : 23.976 (24000/1001) FPS
Color space : YUV
Chroma subsampling : 4:2:0
Bit depth : 8 bits
Scan type : Progressive
Bits/(Pixel*Frame) : 0.379
Stream size : 6.21 GiB (83%)
Title : MPEG-4 AVC Video / 18998 kbps / 1080p / 23.976 fps / 16:9 / High Profile 4.1
Language : English
Default : Yes
Forced : No

Audio
ID : 2
Format : DTS
Format/Info : Digital Theater Systems
Format profile : MA / Core
Mode : 16
Format settings, Endianness : Big
Codec ID : A_DTS
Duration : 47 min 10 s
Bit rate mode : Variable / Constant
Bit rate : 3 730 kb/s / 1 509 kb/s
Channel(s) : 6 channels
Channel positions : Front: L C R, Side: L R, LFE
Sampling rate : 48.0 kHz
Frame rate : 93.750 FPS (512 SPF)
Bit depth : 24 bits
Compression mode : Lossless / Lossy
Stream size : 1.23 GiB (16%)
Title : DTS-HD Master Audio / 5.1 / 48 kHz / 3730 kbps / 24-bit
Language : English
Default : Yes
Forced : No

Text #1
ID : 3
Format : PGS
Codec ID : S_HDMV/PGS
Codec ID/Info : Picture based subtitle format used on BDs/HD-DVDs
Duration : 46 min 6 s
Bit rate : 34.6 kb/s
Count of elements : 1246
Stream size : 11.4 MiB (0%)
Title : SDH
Language : English
Default : No
Forced : No

Text #2
ID : 4
Format : PGS
Codec ID : S_HDMV/PGS
Codec ID/Info : Picture based subtitle format used on BDs/HD-DVDs
Duration : 47 min 4 s
Bit rate : 28.7 kb/s
Count of elements : 1100
Stream size : 9.67 MiB (0%)
Language : Spanish
Default : No
Forced : No

Text #3
ID : 5
Format : PGS
Codec ID : S_HDMV/PGS
Codec ID/Info : Picture based subtitle format used on BDs/HD-DVDs
Duration : 47 min 4 s
Bit rate : 28.9 kb/s
Count of elements : 1058
Stream size : 9.74 MiB (0%)
Language : French
Default : No
Forced : No

Text #4
ID : 6
Format : PGS
Codec ID : S_HDMV/PGS
Codec ID/Info : Picture based subtitle format used on BDs/HD-DVDs
Duration : 47 min 4 s
Bit rate : 29.0 kb/s
Count of elements : 1060
Stream size : 9.78 MiB (0%)
Language : French
Default : No
Forced : No

Text #5
ID : 7
Format : PGS
Codec ID : S_HDMV/PGS
Codec ID/Info : Picture based subtitle format used on BDs/HD-DVDs
Duration : 47 min 4 s
Bit rate : 35.3 kb/s
Count of elements : 1108
Stream size : 11.9 MiB (0%)
Language : German
Default : No
Forced : No

Menu
00:00:00.000 : en:Chapter 1
00:06:06.575 : en:Chapter 2
00:08:39.686 : en:Chapter 3
00:14:11.476 : en:Chapter 4
00:15:29.095 : en:Chapter 5
00:20:09.125 : en:Chapter 6
00:24:52.825 : en:Chapter 7
00:29:58.005 : en:Chapter 8
00:31:27.344 : en:Chapter 9
00:34:20.183 : en:Chapter 10
00:38:59.295 : en:Chapter 11
00:43:48.084 : en:Chapter 12





American Horror Story S03E10


American Horror Story S03E10


American Horror Story S03E10


American Horror Story S03E10


American Horror Story S03E10

All episodes