Index
# A B C D E F G H I J K L M N O P Q R S T U V W Y Z
Tags
Language
Tags

Featured TV Shows


American Horror Story S03E13

Posted By: Tavaz
1080p (FullHD) / BDRip IMDb
American Horror Story S03E13

American Horror Story S03E13
BDRip | MKV | 1920x1080 | English | H264 @ 10262 kbps | DTS @ 1509 kbps | 48 min 15 s | 3.97 GiB
Genre: Drama, Mystery


An anthology horror drama series centering on different characters and locations, including a house with a murderous past, an asylum, a witch coven, a freak show, a hotel, a farmhouse in Roanoke and a cult.

e8aef26138bc47888af7a3844637c94f.mkv (4.0 GB)



General
Unique ID : 200513708902809406567371317442486223194 (0x96D9891EA0F15D18B2CC8FE42B88415A)
Complete name : ./e8aef26138bc47888af7a3844637c94f.mkv
Format : Matroska
Format version : Version 4 / Version 2
File size : 3.97 GiB
Duration : 48 min 15 s
Overall bit rate : 11.8 Mb/s
Encoded date : UTC 2014-09-25 22:32:15
Writing application : mkvmerge v6.2.0 ('Promised Land') built on Apr 28 2013 12:22:01
Writing library : libebml v1.3.0 + libmatroska v1.4.0

Video
ID : 1
Format : AVC
Format/Info : Advanced Video Codec
Format profile : High@L4.1
Format settings : CABAC / 4 Ref Frames
Format settings, CABAC : Yes
Format settings, RefFrames : 4 frames
Codec ID : V_MPEG4/ISO/AVC
Duration : 48 min 15 s
Bit rate : 10.3 Mb/s
Width : 1 920 pixels
Height : 1 080 pixels
Display aspect ratio : 16:9
Frame rate mode : Constant
Frame rate : 23.976 FPS
Color space : YUV
Chroma subsampling : 4:2:0
Bit depth : 8 bits
Scan type : Progressive
Bits/(Pixel*Frame) : 0.206
Stream size : 3.38 GiB (85%)
Writing library : x264 core 142 r2479 dd79a61
Encoding settings : cabac=1 / ref=4 / deblock=1:0:0 / analyse=0x3:0x133 / me=umh / subme=7 / psy=1 / psy_rd=1.00:0.00 / mixed_ref=1 / me_range=16 / chroma_me=1 / trellis=1 / 8x8dct=1 / cqm=0 / deadzone=21,11 / fast_pskip=0 / chroma_qp_offset=-2 / threads=18 / lookahead_threads=3 / sliced_threads=0 / nr=0 / decimate=1 / interlaced=0 / bluray_compat=0 / constrained_intra=0 / bframes=3 / b_pyramid=2 / b_adapt=1 / b_bias=0 / direct=1 / weightb=1 / open_gop=0 / weightp=2 / keyint=250 / keyint_min=23 / scenecut=40 / intra_refresh=0 / rc_lookahead=40 / rc=2pass / mbtree=1 / bitrate=10262 / ratetol=1.0 / qcomp=0.60 / qpmin=0 / qpmax=69 / qpstep=4 / cplxblur=20.0 / qblur=0.5 / ip_ratio=1.40 / aq=1:1.00
Language : English
Default : Yes
Forced : No

Audio
ID : 2
Format : DTS
Format/Info : Digital Theater Systems
Mode : 16
Format settings, Endianness : Big
Codec ID : A_DTS
Duration : 48 min 15 s
Bit rate mode : Constant
Bit rate : 1 509 kb/s
Channel(s) : 6 channels
Channel positions : Front: L C R, Side: L R, LFE
Sampling rate : 48.0 kHz
Frame rate : 93.750 FPS (512 SPF)
Bit depth : 24 bits
Compression mode : Lossy
Stream size : 521 MiB (13%)
Language : English
Default : Yes
Forced : No

Menu
00:00:00.000 : en:00:00:00.000
00:03:53.608 : en:00:03:53.608
00:07:06.051 : en:00:07:06.051
00:09:12.218 : en:00:09:12.218
00:13:42.989 : en:00:13:42.989
00:18:34.572 : en:00:18:34.572
00:21:00.259 : en:00:21:00.259
00:26:24.208 : en:00:26:24.208
00:29:39.236 : en:00:29:39.236
00:34:09.673 : en:00:34:09.673
00:35:22.996 : en:00:35:22.996
00:46:17.066 : en:00:46:17.066





American Horror Story S03E13


American Horror Story S03E13


American Horror Story S03E13


American Horror Story S03E13


American Horror Story S03E13

All episodes