Index
# A B C D E F G H I J K L M N O P Q R S T U V W Y Z
Tags
Language
Tags

Featured TV Shows


American Horror Story S04E02

Posted By: Tavaz
American Horror Story S04E02

American Horror Story S04E02
MKV | 1280x720 | English | H264 @ 2200 kbps | AC-3 @ 384 kbps | 55 min 21 s | 1 023 MiB
Subtitles: English
Genre: Drama, Mystery


An anthology horror drama series centering on different characters and locations, including a house with a murderous past, an asylum, a witch coven, a freak show, a hotel, a farmhouse in Roanoke and a cult.

6068baa153144d8684f706971573e55a.mkv (1023.3 MB)



General
Unique ID : 254514833471192809234584476331394487951 (0xBF79C61EC9C51950B14A0619D16C568F)
Complete name : ./6068baa153144d8684f706971573e55a.mkv
Format : Matroska
Format version : Version 4 / Version 2
File size : 1 023 MiB
Duration : 55 min 21 s
Overall bit rate mode : Variable
Overall bit rate : 2 584 kb/s
Movie name : American Horror Story S04E02 720p BluRay DD5 1 x264-DON
Encoded date : UTC 2016-08-26 20:40:44
Writing application : mkvmerge v9.3.1 ('Mask Machine') 32bit
Writing library : libebml v1.3.4 + libmatroska v1.4.5

Video
ID : 1
Format : AVC
Format/Info : Advanced Video Codec
Format profile : High@L4.1
Format settings : CABAC / 5 Ref Frames
Format settings, CABAC : Yes
Format settings, RefFrames : 5 frames
Codec ID : V_MPEG4/ISO/AVC
Duration : 55 min 21 s
Bit rate mode : Variable
Bit rate : 2 200 kb/s
Maximum bit rate : 62.5 Mb/s
Width : 1 280 pixels
Height : 720 pixels
Display aspect ratio : 16:9
Frame rate mode : Constant
Frame rate : 23.976 (24000/1001) FPS
Color space : YUV
Chroma subsampling : 4:2:0
Bit depth : 8 bits
Scan type : Progressive
Bits/(Pixel*Frame) : 0.100
Stream size : 870 MiB (85%)
Writing library : x264 core 148 r2694 3b70645
Encoding settings : cabac=1 / ref=5 / deblock=1:-1:-1 / analyse=0x3:0x113 / me=umh / subme=8 / psy=1 / psy_rd=1.00:0.15 / mixed_ref=1 / me_range=16 / chroma_me=1 / trellis=1 / 8x8dct=1 / cqm=0 / deadzone=21,11 / fast_pskip=1 / chroma_qp_offset=-3 / threads=18 / lookahead_threads=3 / sliced_threads=0 / nr=0 / decimate=1 / interlaced=0 / bluray_compat=0 / constrained_intra=0 / bframes=3 / b_pyramid=2 / b_adapt=2 / b_bias=0 / direct=3 / weightb=1 / open_gop=0 / weightp=2 / keyint=240 / keyint_min=24 / scenecut=40 / intra_refresh=0 / rc_lookahead=50 / rc=2pass / mbtree=1 / bitrate=2200 / ratetol=1.0 / qcomp=0.60 / qpmin=0 / qpmax=69 / qpstep=4 / cplxblur=20.0 / qblur=0.5 / vbv_maxrate=62500 / vbv_bufsize=62500 / nal_hrd=vbr / filler=0 / ip_ratio=1.40 / aq=1:1.00
Default : Yes
Forced : No

Audio
ID : 2
Format : AC-3
Format/Info : Audio Coding 3
Format settings, Endianness : Big
Codec ID : A_AC3
Duration : 55 min 21 s
Bit rate mode : Constant
Bit rate : 384 kb/s
Channel(s) : 6 channels
Channel positions : Front: L C R, Side: L R, LFE
Sampling rate : 48.0 kHz
Frame rate : 31.250 FPS (1536 SPF)
Bit depth : 16 bits
Compression mode : Lossy
Stream size : 152 MiB (15%)
Language : English
Service kind : Complete Main
Default : Yes
Forced : No

Text
ID : 3
Format : UTF-8
Codec ID : S_TEXT/UTF8
Codec ID/Info : UTF-8 Plain Text
Duration : 54 min 7 s
Bit rate : 60 b/s
Count of elements : 654
Stream size : 24.1 KiB (0%)
Language : English
Default : Yes
Forced : No

Menu
00:00:00.000 : en:00:00:00.000
00:07:32.077 : en:00:07:32.077
00:13:11.374 : en:00:13:11.374
00:18:30.484 : en:00:18:30.484
00:19:35.674 : en:00:19:35.674
00:23:08.137 : en:00:23:08.137
00:25:27.484 : en:00:25:27.484
00:32:07.092 : en:00:32:07.092
00:35:47.228 : en:00:35:47.228
00:39:54.642 : en:00:39:54.642
00:44:32.461 : en:00:44:32.461
00:48:21.315 : en:00:48:21.315





American Horror Story S04E02


American Horror Story S04E02


American Horror Story S04E02


American Horror Story S04E02


American Horror Story S04E02

All episodes