Index
# A B C D E F G H I J K L M N O P Q R S T U V W Y Z
Tags
Language
Tags

Featured TV Shows


American Horror Story S04E03

Posted By: Tavaz
1080p (FullHD) / BDRip IMDb
American Horror Story S04E03

American Horror Story S04E03
BluRay Remux | MKV | 1920x1080 | English | H264 @ 17906 kbps | DTS | 57 min 1 s | 8.67 GiB
Subtitles: Deutsch, Español, Français, English
Genre: Drama, Mystery


An anthology horror drama series centering on different characters and locations, including a house with a murderous past, an asylum, a witch coven, a freak show, a hotel, a farmhouse in Roanoke and a cult.

American.Horror.Story.S04E03.Edward.Mordrake.Part.1.1080p.BluRay.REMUX.AVC.DTS-HD.MA.5.1-EPSiLON.part1.rar (4.6 GB)
American.Horror.Story.S04E03.Edward.Mordrake.Part.1.1080p.BluRay.REMUX.AVC.DTS-HD.MA.5.1-EPSiLON.part2.rar (4.2 GB)



General
Unique ID : 28283695821729892712646424145770521298 (0x15473DDE390A0AC665B5F538738322D2)
Complete name : ./American.Horror.Story.S04E03.Edward.Mordrake.Part.1.1080p.BluRay.REMUX.AVC.DTS-HD.MA.5.1-EPSiLON.mkv
Format : Matroska
Format version : Version 4 / Version 2
File size : 8.67 GiB
Duration : 57 min 1 s
Overall bit rate mode : Variable
Overall bit rate : 21.8 Mb/s
Encoded date : UTC 2017-05-22 12:06:09
Writing application : mkvmerge v12.0.0 ('Trust / Lust') 64bit
Writing library : libebml v1.3.4 + libmatroska v1.4.5

Video
ID : 1
Format : AVC
Format/Info : Advanced Video Codec
Format profile : High@L4.1
Format settings : CABAC / 4 Ref Frames
Format settings, CABAC : Yes
Format settings, RefFrames : 4 frames
Codec ID : V_MPEG4/ISO/AVC
Duration : 57 min 1 s
Bit rate mode : Variable
Bit rate : 17.9 Mb/s
Maximum bit rate : 37.0 Mb/s
Width : 1 920 pixels
Height : 1 080 pixels
Display aspect ratio : 16:9
Frame rate mode : Constant
Frame rate : 23.976 (24000/1001) FPS
Color space : YUV
Chroma subsampling : 4:2:0
Bit depth : 8 bits
Scan type : Progressive
Bits/(Pixel*Frame) : 0.360
Stream size : 7.13 GiB (82%)
Title : MPEG-4 AVC Video / 17999 kbps / 1080p / 23.976 fps / 16:9 / High Profile 4.1
Language : English
Default : Yes
Forced : No

Audio
ID : 2
Format : DTS
Format/Info : Digital Theater Systems
Format profile : MA / Core
Mode : 16
Format settings, Endianness : Big
Codec ID : A_DTS
Duration : 57 min 1 s
Bit rate mode : Variable / Constant
Bit rate : 3 641 kb/s / 1 509 kb/s
Channel(s) : 6 channels
Channel positions : Front: L C R, Side: L R, LFE
Sampling rate : 48.0 kHz
Frame rate : 93.750 FPS (512 SPF)
Bit depth : 24 bits
Compression mode : Lossless / Lossy
Stream size : 1.45 GiB (17%)
Title : DTS-HD Master Audio / 5.1 / 48 kHz / 3641 kbps / 24-bit
Language : English
Default : Yes
Forced : No

Text #1
ID : 3
Format : PGS
Codec ID : S_HDMV/PGS
Codec ID/Info : Picture based subtitle format used on BDs/HD-DVDs
Duration : 55 min 52 s
Bit rate : 48.3 kb/s
Count of elements : 1552
Stream size : 19.3 MiB (0%)
Title : SDH
Language : English
Default : No
Forced : No

Text #2
ID : 4
Format : PGS
Codec ID : S_HDMV/PGS
Codec ID/Info : Picture based subtitle format used on BDs/HD-DVDs
Duration : 56 min 47 s
Bit rate : 40.9 kb/s
Count of elements : 1306
Stream size : 16.6 MiB (0%)
Language : Spanish
Default : No
Forced : No

Text #3
ID : 5
Format : PGS
Codec ID : S_HDMV/PGS
Codec ID/Info : Picture based subtitle format used on BDs/HD-DVDs
Duration : 56 min 47 s
Bit rate : 44.6 kb/s
Count of elements : 1304
Stream size : 18.1 MiB (0%)
Language : French
Default : No
Forced : No

Text #4
ID : 6
Format : PGS
Codec ID : S_HDMV/PGS
Codec ID/Info : Picture based subtitle format used on BDs/HD-DVDs
Duration : 56 min 47 s
Bit rate : 44.1 kb/s
Count of elements : 1304
Stream size : 17.9 MiB (0%)
Language : French
Default : No
Forced : No

Text #5
ID : 7
Format : PGS
Codec ID : S_HDMV/PGS
Codec ID/Info : Picture based subtitle format used on BDs/HD-DVDs
Duration : 56 min 47 s
Bit rate : 44.5 kb/s
Count of elements : 1296
Stream size : 18.1 MiB (0%)
Language : German
Default : No
Forced : No

Menu
00:00:00.000 : en:Chapter 1
00:04:43.700 : en:Chapter 2
00:09:31.488 : en:Chapter 3
00:15:47.405 : en:Chapter 4
00:19:36.592 : en:Chapter 5
00:22:04.698 : en:Chapter 6
00:26:21.747 : en:Chapter 7
00:32:06.633 : en:Chapter 8
00:34:31.569 : en:Chapter 9
00:40:17.081 : en:Chapter 10
00:45:26.223 : en:Chapter 11
00:54:22.551 : en:Chapter 12





American Horror Story S04E03


American Horror Story S04E03


American Horror Story S04E03


American Horror Story S04E03


American Horror Story S04E03

All episodes