Index
# A B C D E F G H I J K L M N O P Q R S T U V W Y Z
Tags
Language
Tags

Featured TV Shows


American Horror Story S04E08

Posted By: Tavaz
1080p (FullHD) / BDRip IMDb
American Horror Story S04E08

American Horror Story S04E08
BluRay Remux | MKV | 1920x1080 | English | H264 @ 20427 kbps | DTS | 45 min 58 s | 7.78 GiB
Subtitles: Deutsch, Español, Français, English
Genre: Drama, Mystery


An anthology horror drama series centering on different characters and locations, including a house with a murderous past, an asylum, a witch coven, a freak show, a hotel, a farmhouse in Roanoke and a cult.

American.Horror.Story.S04E08.Blood.Bath.1080p.BluRay.REMUX.AVC.DTS-HD.MA.5.1-EPSiLON.mkv (7.8 GB)



General
Unique ID : 111271725282176608094721184230740360058 (0x53B6279EE7D7101966FB3B88559C7B7A)
Complete name : ./American.Horror.Story.S04E08.Blood.Bath.1080p.BluRay.REMUX.AVC.DTS-HD.MA.5.1-EPSiLON.mkv
Format : Matroska
Format version : Version 4 / Version 2
File size : 7.78 GiB
Duration : 45 min 58 s
Overall bit rate mode : Variable
Overall bit rate : 24.2 Mb/s
Encoded date : UTC 2017-05-22 12:22:09
Writing application : mkvmerge v12.0.0 ('Trust / Lust') 64bit
Writing library : libebml v1.3.4 + libmatroska v1.4.5

Video
ID : 1
Format : AVC
Format/Info : Advanced Video Codec
Format profile : High@L4.1
Format settings : CABAC / 4 Ref Frames
Format settings, CABAC : Yes
Format settings, RefFrames : 4 frames
Codec ID : V_MPEG4/ISO/AVC
Duration : 45 min 58 s
Bit rate mode : Variable
Bit rate : 20.4 Mb/s
Maximum bit rate : 37.0 Mb/s
Width : 1 920 pixels
Height : 1 080 pixels
Display aspect ratio : 16:9
Frame rate mode : Constant
Frame rate : 23.976 (24000/1001) FPS
Color space : YUV
Chroma subsampling : 4:2:0
Bit depth : 8 bits
Scan type : Progressive
Bits/(Pixel*Frame) : 0.411
Stream size : 6.56 GiB (84%)
Title : MPEG-4 AVC Video / 20500 kbps / 1080p / 23.976 fps / 16:9 / High Profile 4.1
Language : English
Default : Yes
Forced : No

Audio
ID : 2
Format : DTS
Format/Info : Digital Theater Systems
Format profile : MA / Core
Mode : 16
Format settings, Endianness : Big
Codec ID : A_DTS
Duration : 45 min 58 s
Bit rate mode : Variable / Constant
Bit rate : 3 578 kb/s / 1 509 kb/s
Channel(s) : 6 channels
Channel positions : Front: L C R, Side: L R, LFE
Sampling rate : 48.0 kHz
Frame rate : 93.750 FPS (512 SPF)
Bit depth : 24 bits
Compression mode : Lossless / Lossy
Stream size : 1.15 GiB (15%)
Title : DTS-HD Master Audio / 5.1 / 48 kHz / 3578 kbps / 24-bit
Language : English
Default : Yes
Forced : No

Text #1
ID : 3
Format : PGS
Codec ID : S_HDMV/PGS
Codec ID/Info : Picture based subtitle format used on BDs/HD-DVDs
Duration : 44 min 34 s
Bit rate : 49.6 kb/s
Count of elements : 1466
Stream size : 15.8 MiB (0%)
Title : SDH
Language : English
Default : No
Forced : No

Text #2
ID : 4
Format : PGS
Codec ID : S_HDMV/PGS
Codec ID/Info : Picture based subtitle format used on BDs/HD-DVDs
Duration : 45 min 46 s
Bit rate : 42.3 kb/s
Count of elements : 1284
Stream size : 13.8 MiB (0%)
Language : Spanish
Default : No
Forced : No

Text #3
ID : 5
Format : PGS
Codec ID : S_HDMV/PGS
Codec ID/Info : Picture based subtitle format used on BDs/HD-DVDs
Duration : 45 min 46 s
Bit rate : 43.4 kb/s
Count of elements : 1284
Stream size : 14.2 MiB (0%)
Language : French
Default : No
Forced : No

Text #4
ID : 6
Format : PGS
Codec ID : S_HDMV/PGS
Codec ID/Info : Picture based subtitle format used on BDs/HD-DVDs
Duration : 45 min 46 s
Bit rate : 43.6 kb/s
Count of elements : 1284
Stream size : 14.3 MiB (0%)
Language : French
Default : No
Forced : No

Text #5
ID : 7
Format : PGS
Codec ID : S_HDMV/PGS
Codec ID/Info : Picture based subtitle format used on BDs/HD-DVDs
Duration : 45 min 46 s
Bit rate : 48.6 kb/s
Count of elements : 1280
Stream size : 15.9 MiB (0%)
Language : German
Default : No
Forced : No

Menu
00:00:00.000 : en:Chapter 1
00:03:33.296 : en:Chapter 2
00:05:11.603 : en:Chapter 3
00:12:09.938 : en:Chapter 4
00:16:55.723 : en:Chapter 5
00:20:17.800 : en:Chapter 6
00:24:52.533 : en:Chapter 7
00:27:31.358 : en:Chapter 8
00:32:00.669 : en:Chapter 9
00:34:41.371 : en:Chapter 10
00:38:38.525 : en:Chapter 11
00:44:44.473 : en:Chapter 12





American Horror Story S04E08


American Horror Story S04E08


American Horror Story S04E08


American Horror Story S04E08


American Horror Story S04E08

All episodes