Index
# A B C D E F G H I J K L M N O P Q R S T U V W Y Z
Tags
Language
Tags

Featured TV Shows


American Horror Story S04E09

Posted By: Tavaz
1080p (FullHD) / BDRip IMDb
American Horror Story S04E09

American Horror Story S04E09
BluRay Remux | MKV | 1920x1080 | English | H264 @ 20391 kbps | DTS | 44 min 21 s | 7.47 GiB
Subtitles: Deutsch, Español, Français, English
Genre: Drama, Mystery


An anthology horror drama series centering on different characters and locations, including a house with a murderous past, an asylum, a witch coven, a freak show, a hotel, a farmhouse in Roanoke and a cult.

American.Horror.Story.S04E09.Tupperware.Party.Massacre.1080p.BluRay.REMUX.AVC.DTS-HD.MA.5.1-EPSiLON.mkv (7.5 GB)



General
Unique ID : 16734928151872126707947727228244222547 (0xC9707A921907E3D2D64309CAB626253)
Complete name : ./American.Horror.Story.S04E09.Tupperware.Party.Massacre.1080p.BluRay.REMUX.AVC.DTS-HD.MA.5.1-EPSiLON.mkv
Format : Matroska
Format version : Version 4 / Version 2
File size : 7.47 GiB
Duration : 44 min 21 s
Overall bit rate mode : Variable
Overall bit rate : 24.1 Mb/s
Encoded date : UTC 2017-05-22 12:25:29
Writing application : mkvmerge v12.0.0 ('Trust / Lust') 64bit
Writing library : libebml v1.3.4 + libmatroska v1.4.5

Video
ID : 1
Format : AVC
Format/Info : Advanced Video Codec
Format profile : High@L4.1
Format settings : CABAC / 4 Ref Frames
Format settings, CABAC : Yes
Format settings, RefFrames : 4 frames
Codec ID : V_MPEG4/ISO/AVC
Duration : 44 min 21 s
Bit rate mode : Variable
Bit rate : 20.4 Mb/s
Maximum bit rate : 37.0 Mb/s
Width : 1 920 pixels
Height : 1 080 pixels
Display aspect ratio : 16:9
Frame rate mode : Constant
Frame rate : 23.976 (24000/1001) FPS
Color space : YUV
Chroma subsampling : 4:2:0
Bit depth : 8 bits
Scan type : Progressive
Bits/(Pixel*Frame) : 0.410
Stream size : 6.32 GiB (85%)
Title : MPEG-4 AVC Video / 20500 kbps / 1080p / 23.976 fps / 16:9 / High Profile 4.1
Language : English
Default : Yes
Forced : No

Audio
ID : 2
Format : DTS
Format/Info : Digital Theater Systems
Format profile : MA / Core
Mode : 16
Format settings, Endianness : Big
Codec ID : A_DTS
Duration : 44 min 21 s
Bit rate mode : Variable / Constant
Bit rate : 3 503 kb/s / 1 509 kb/s
Channel(s) : 6 channels
Channel positions : Front: L C R, Side: L R, LFE
Sampling rate : 48.0 kHz
Frame rate : 93.750 FPS (512 SPF)
Bit depth : 24 bits
Compression mode : Lossless / Lossy
Stream size : 1.09 GiB (15%)
Title : DTS-HD Master Audio / 5.1 / 48 kHz / 3503 kbps / 24-bit
Language : English
Default : Yes
Forced : No

Text #1
ID : 3
Format : PGS
Codec ID : S_HDMV/PGS
Codec ID/Info : Picture based subtitle format used on BDs/HD-DVDs
Duration : 43 min 19 s
Bit rate : 49.0 kb/s
Count of elements : 1238
Stream size : 15.2 MiB (0%)
Title : SDH
Language : English
Default : No
Forced : No

Text #2
ID : 4
Format : PGS
Codec ID : S_HDMV/PGS
Codec ID/Info : Picture based subtitle format used on BDs/HD-DVDs
Duration : 44 min 17 s
Bit rate : 42.1 kb/s
Count of elements : 1118
Stream size : 13.3 MiB (0%)
Language : Spanish
Default : No
Forced : No

Text #3
ID : 5
Format : PGS
Codec ID : S_HDMV/PGS
Codec ID/Info : Picture based subtitle format used on BDs/HD-DVDs
Duration : 44 min 17 s
Bit rate : 43.7 kb/s
Count of elements : 1094
Stream size : 13.9 MiB (0%)
Language : French
Default : No
Forced : No

Text #4
ID : 6
Format : PGS
Codec ID : S_HDMV/PGS
Codec ID/Info : Picture based subtitle format used on BDs/HD-DVDs
Duration : 44 min 17 s
Bit rate : 43.3 kb/s
Count of elements : 1094
Stream size : 13.7 MiB (0%)
Language : French
Default : No
Forced : No

Text #5
ID : 7
Format : PGS
Codec ID : S_HDMV/PGS
Codec ID/Info : Picture based subtitle format used on BDs/HD-DVDs
Duration : 44 min 17 s
Bit rate : 47.7 kb/s
Count of elements : 1110
Stream size : 15.1 MiB (0%)
Language : German
Default : No
Forced : No

Menu
00:00:00.000 : en:Chapter 1
00:06:30.640 : en:Chapter 2
00:07:58.520 : en:Chapter 3
00:10:11.945 : en:Chapter 4
00:13:24.429 : en:Chapter 5
00:17:17.078 : en:Chapter 6
00:20:25.349 : en:Chapter 7
00:24:26.048 : en:Chapter 8
00:27:09.795 : en:Chapter 9
00:31:36.728 : en:Chapter 10
00:33:09.779 : en:Chapter 11
00:35:58.823 : en:Chapter 12





American Horror Story S04E09


American Horror Story S04E09


American Horror Story S04E09


American Horror Story S04E09


American Horror Story S04E09

All episodes