Index
# A B C D E F G H I J K L M N O P Q R S T U V W Y Z
Tags
Language
Tags

Featured TV Shows


American Horror Story S04E11

Posted By: Tavaz
1080p (FullHD) / BDRip IMDb
American Horror Story S04E11

American Horror Story S04E11
BluRay Remux | MKV | 1920x1080 | English | H264 @ 25914 kbps | DTS | 45 min 48 s | 9.52 GiB
Subtitles: Deutsch, Español, Français, English
Genre: Drama, Mystery


An anthology horror drama series centering on different characters and locations, including a house with a murderous past, an asylum, a witch coven, a freak show, a hotel, a farmhouse in Roanoke and a cult.

American.Horror.Story.S04E11.Magical.Thinking.1080p.BluRay.REMUX.AVC.DTS-HD.MA.5.1-EPSiLON.part1.rar (5.0 GB)
American.Horror.Story.S04E11.Magical.Thinking.1080p.BluRay.REMUX.AVC.DTS-HD.MA.5.1-EPSiLON.part2.rar (4.6 GB)



General
Unique ID : 75231603584080196700955286875713476723 (0x3899146E791A0266257036C49D6E9873)
Complete name : ./American.Horror.Story.S04E11.Magical.Thinking.1080p.BluRay.REMUX.AVC.DTS-HD.MA.5.1-EPSiLON.mkv
Format : Matroska
Format version : Version 4 / Version 2
File size : 9.52 GiB
Duration : 45 min 48 s
Overall bit rate mode : Variable
Overall bit rate : 29.7 Mb/s
Encoded date : UTC 2017-05-22 12:33:19
Writing application : mkvmerge v12.0.0 ('Trust / Lust') 64bit
Writing library : libebml v1.3.4 + libmatroska v1.4.5

Video
ID : 1
Format : AVC
Format/Info : Advanced Video Codec
Format profile : High@L4.1
Format settings : CABAC / 4 Ref Frames
Format settings, CABAC : Yes
Format settings, RefFrames : 4 frames
Format settings, GOP : M=3, N=12
Codec ID : V_MPEG4/ISO/AVC
Duration : 45 min 48 s
Bit rate mode : Variable
Bit rate : 25.9 Mb/s
Maximum bit rate : 37.0 Mb/s
Width : 1 920 pixels
Height : 1 080 pixels
Display aspect ratio : 16:9
Frame rate mode : Constant
Frame rate : 23.976 (24000/1001) FPS
Color space : YUV
Chroma subsampling : 4:2:0
Bit depth : 8 bits
Scan type : Progressive
Bits/(Pixel*Frame) : 0.521
Stream size : 8.29 GiB (87%)
Title : MPEG-4 AVC Video / 25999 kbps / 1080p / 23.976 fps / 16:9 / High Profile 4.1
Language : English
Default : Yes
Forced : No

Audio
ID : 2
Format : DTS
Format/Info : Digital Theater Systems
Format profile : MA / Core
Mode : 16
Format settings, Endianness : Big
Codec ID : A_DTS
Duration : 45 min 48 s
Bit rate mode : Variable / Constant
Bit rate : 3 593 kb/s / 1 509 kb/s
Channel(s) : 6 channels
Channel positions : Front: L C R, Side: L R, LFE
Sampling rate : 48.0 kHz
Frame rate : 93.750 FPS (512 SPF)
Bit depth : 24 bits
Compression mode : Lossless / Lossy
Stream size : 1.15 GiB (12%)
Title : DTS-HD Master Audio / 5.1 / 48 kHz / 3593 kbps / 24-bit
Language : English
Default : Yes
Forced : No

Text #1
ID : 3
Format : PGS
Codec ID : S_HDMV/PGS
Codec ID/Info : Picture based subtitle format used on BDs/HD-DVDs
Duration : 44 min 58 s
Bit rate : 50.4 kb/s
Count of elements : 1328
Stream size : 16.2 MiB (0%)
Title : SDH
Language : English
Default : No
Forced : No

Text #2
ID : 4
Format : PGS
Codec ID : S_HDMV/PGS
Codec ID/Info : Picture based subtitle format used on BDs/HD-DVDs
Duration : 45 min 43 s
Bit rate : 43.4 kb/s
Count of elements : 1142
Stream size : 14.2 MiB (0%)
Language : Spanish
Default : No
Forced : No

Text #3
ID : 5
Format : PGS
Codec ID : S_HDMV/PGS
Codec ID/Info : Picture based subtitle format used on BDs/HD-DVDs
Duration : 45 min 43 s
Bit rate : 45.4 kb/s
Count of elements : 1126
Stream size : 14.8 MiB (0%)
Language : French
Default : No
Forced : No

Text #4
ID : 6
Format : PGS
Codec ID : S_HDMV/PGS
Codec ID/Info : Picture based subtitle format used on BDs/HD-DVDs
Duration : 45 min 43 s
Bit rate : 45.3 kb/s
Count of elements : 1122
Stream size : 14.8 MiB (0%)
Language : French
Default : No
Forced : No

Text #5
ID : 7
Format : PGS
Codec ID : S_HDMV/PGS
Codec ID/Info : Picture based subtitle format used on BDs/HD-DVDs
Duration : 45 min 43 s
Bit rate : 48.3 kb/s
Count of elements : 1140
Stream size : 15.8 MiB (0%)
Language : German
Default : No
Forced : No

Menu
00:00:00.000 : en:Chapter 1
00:05:41.216 : en:Chapter 2
00:10:19.202 : en:Chapter 3
00:13:48.786 : en:Chapter 4
00:18:09.922 : en:Chapter 5
00:19:43.391 : en:Chapter 6
00:25:05.671 : en:Chapter 7
00:26:12.863 : en:Chapter 8
00:32:03.130 : en:Chapter 9
00:36:23.014 : en:Chapter 10
00:37:52.645 : en:Chapter 11
00:41:46.462 : en:Chapter 12





American Horror Story S04E11


American Horror Story S04E11


American Horror Story S04E11


American Horror Story S04E11


American Horror Story S04E11

All episodes