Index
# A B C D E F G H I J K L M N O P Q R S T U V W Y Z
Tags
Language
Tags

Featured TV Shows


American Horror Story S05E03

Posted By: Tavaz
1080p (FullHD) / BDRip IMDb
American Horror Story S05E03

American Horror Story S05E03
BDRip | MKV | 1920x1080 | English | H264 @ 9193 kbps | DTS @ 1509 kbps | 53 min 6 s | 3.97 GiB
Genre: Drama, Mystery


An anthology horror drama series centering on different characters and locations, including a house with a murderous past, an asylum, a witch coven, a freak show, a hotel, a farmhouse in Roanoke and a cult.

0db7fed4638644a9b75c9edc10353a90.mkv (4.0 GB)



General
Unique ID : 194844828390454175834506817562711405688 (0x9295BFBB3A457149A9548E61D07FB478)
Complete name : ./0db7fed4638644a9b75c9edc10353a90.mkv
Format : Matroska
Format version : Version 4 / Version 2
File size : 3.97 GiB
Duration : 53 min 6 s
Overall bit rate : 10.7 Mb/s
Encoded date : UTC 2016-09-18 20:02:38
Writing application : mkvmerge v8.3.0 ('Over the Horizon') 64bit
Writing library : libebml v1.3.1 + libmatroska v1.4.2

Video
ID : 1
Format : AVC
Format/Info : Advanced Video Codec
Format profile : High@L4.1
Format settings : CABAC / 4 Ref Frames
Format settings, CABAC : Yes
Format settings, RefFrames : 4 frames
Codec ID : V_MPEG4/ISO/AVC
Duration : 53 min 6 s
Bit rate : 9 193 kb/s
Width : 1 920 pixels
Height : 1 080 pixels
Display aspect ratio : 16:9
Frame rate mode : Constant
Frame rate : 23.976 FPS
Color space : YUV
Chroma subsampling : 4:2:0
Bit depth : 8 bits
Scan type : Progressive
Bits/(Pixel*Frame) : 0.185
Stream size : 3.41 GiB (86%)
Writing library : x264 core 148 r2692 64f4e24
Encoding settings : cabac=1 / ref=4 / deblock=1:0:0 / analyse=0x3:0x133 / me=umh / subme=7 / psy=1 / psy_rd=1.00:0.00 / mixed_ref=1 / me_range=16 / chroma_me=1 / trellis=1 / 8x8dct=1 / cqm=0 / deadzone=21,11 / fast_pskip=0 / chroma_qp_offset=-2 / threads=24 / lookahead_threads=4 / sliced_threads=0 / nr=0 / decimate=1 / interlaced=0 / bluray_compat=0 / constrained_intra=0 / bframes=3 / b_pyramid=2 / b_adapt=1 / b_bias=0 / direct=1 / weightb=1 / open_gop=0 / weightp=2 / keyint=250 / keyint_min=23 / scenecut=40 / intra_refresh=0 / rc_lookahead=40 / rc=2pass / mbtree=1 / bitrate=9193 / ratetol=1.0 / qcomp=0.60 / qpmin=0 / qpmax=69 / qpstep=4 / cplxblur=20.0 / qblur=0.5 / ip_ratio=1.40 / aq=1:1.00
Language : English
Default : Yes
Forced : No

Audio
ID : 2
Format : DTS
Format/Info : Digital Theater Systems
Mode : 16
Format settings, Endianness : Big
Codec ID : A_DTS
Duration : 53 min 6 s
Bit rate mode : Constant
Bit rate : 1 509 kb/s
Channel(s) : 6 channels
Channel positions : Front: L C R, Side: L R, LFE
Sampling rate : 48.0 kHz
Frame rate : 93.750 FPS (512 SPF)
Bit depth : 24 bits
Compression mode : Lossy
Stream size : 573 MiB (14%)
Language : English
Default : Yes
Forced : No

Menu
00:00:00.000 : en:00:00:00.000
00:04:49.998 : en:00:04:49.998
00:14:15.897 : en:00:14:15.897
00:27:29.147 : en:00:27:29.147
00:37:27.912 : en:00:37:27.912
00:47:17.001 : en:00:47:17.001
00:52:26.810 : en:00:52:26.810





American Horror Story S05E03


American Horror Story S05E03


American Horror Story S05E03


American Horror Story S05E03


American Horror Story S05E03

All episodes