Index
# A B C D E F G H I J K L M N O P Q R S T U V W Y Z
Tags
Language
Tags

Featured TV Shows


American Horror Story S05E04

Posted By: Tavaz
1080p (FullHD) / BluRay Remux IMDb
American Horror Story S05E04

American Horror Story S05E04
BluRay Remux | MKV | 1920x1080 | English | H264 @ 17914 kbps | DTS | 48 min 31 s | 7.36 GiB
Subtitles: Español, Deutsch, 日本語, Français, English
Genre: Drama, Mystery


An anthology horror drama series centering on different characters and locations, including a house with a murderous past, an asylum, a witch coven, a freak show, a hotel, a farmhouse in Roanoke, a cult, the apocalypse and a summer camp.

9a70f30bba7bba88f5c8ae47e601f8d6.mkv (7.4 GB)



General
Unique ID : 123335793730920112489741089714324279077 (0x5CC99C1E38385E84671091F5BD028F25)
Complete name : ./9a70f30bba7bba88f5c8ae47e601f8d6.mkv
Format : Matroska
Format version : Version 4 / Version 2
File size : 7.36 GiB
Duration : 48 min 31 s
Overall bit rate mode : Variable
Overall bit rate : 21.7 Mb/s
Movie name : American Horror Story S05E04 Devil's Night 1080p Blu-ray Remux AVC DTS-HD MA 5.1 - KRaLiMaRKo
Encoded date : UTC 2016-09-24 21:04:43
Writing application : mkvmerge v9.4.2 ('So High') 64bit
Writing library : libebml v1.3.4 + libmatroska v1.4.5

Video
ID : 1
Format : AVC
Format/Info : Advanced Video Codec
Format profile : High@L4.1
Format settings : CABAC / 4 Ref Frames
Format settings, CABAC : Yes
Format settings, RefFrames : 4 frames
Codec ID : V_MPEG4/ISO/AVC
Duration : 48 min 31 s
Bit rate mode : Variable
Bit rate : 17.9 Mb/s
Maximum bit rate : 37.0 Mb/s
Width : 1 920 pixels
Height : 1 080 pixels
Display aspect ratio : 16:9
Frame rate mode : Constant
Frame rate : 23.976 (23976/1000) FPS
Original frame rate : 23.976 (24000/1001) FPS
Color space : YUV
Chroma subsampling : 4:2:0
Bit depth : 8 bits
Scan type : Progressive
Bits/(Pixel*Frame) : 0.360
Stream size : 6.07 GiB (82%)
Language : English
Default : Yes
Forced : No

Audio
ID : 2
Format : DTS
Format/Info : Digital Theater Systems
Format profile : MA / Core
Mode : 16
Format settings, Endianness : Big
Codec ID : A_DTS
Duration : 48 min 31 s
Bit rate mode : Variable / Constant
Bit rate : 3 646 kb/s / 1 509 kb/s
Channel(s) : 6 channels
Channel positions : Front: L C R, Side: L R, LFE
Sampling rate : 48.0 kHz
Frame rate : 93.750 FPS (512 SPF)
Bit depth : 24 bits
Compression mode : Lossless / Lossy
Stream size : 1.24 GiB (17%)
Language : English
Default : Yes
Forced : No

Text #1
ID : 3
Format : PGS
Codec ID : S_HDMV/PGS
Codec ID/Info : Picture based subtitle format used on BDs/HD-DVDs
Duration : 47 min 17 s
Bit rate : 35.4 kb/s
Count of elements : 1320
Stream size : 12.0 MiB (0%)
Language : English
Default : No
Forced : No

Text #2
ID : 4
Format : PGS
Codec ID : S_HDMV/PGS
Codec ID/Info : Picture based subtitle format used on BDs/HD-DVDs
Duration : 48 min 5 s
Bit rate : 29.6 kb/s
Count of elements : 1112
Stream size : 10.2 MiB (0%)
Language : French
Default : No
Forced : No

Text #3
ID : 5
Format : PGS
Codec ID : S_HDMV/PGS
Codec ID/Info : Picture based subtitle format used on BDs/HD-DVDs
Duration : 48 min 5 s
Bit rate : 35.6 kb/s
Count of elements : 1162
Stream size : 12.3 MiB (0%)
Language : German
Default : No
Forced : No

Text #4
ID : 6
Format : PGS
Codec ID : S_HDMV/PGS
Codec ID/Info : Picture based subtitle format used on BDs/HD-DVDs
Duration : 48 min 6 s
Bit rate : 23.3 kb/s
Count of elements : 1094
Stream size : 8.02 MiB (0%)
Language : Japanese
Default : No
Forced : No

Text #5
ID : 7
Format : PGS
Codec ID : S_HDMV/PGS
Codec ID/Info : Picture based subtitle format used on BDs/HD-DVDs
Duration : 48 min 5 s
Bit rate : 32.2 kb/s
Count of elements : 1156
Stream size : 11.1 MiB (0%)
Language : Spanish
Default : No
Forced : No





American Horror Story S05E04


American Horror Story S05E04


American Horror Story S05E04


American Horror Story S05E04


American Horror Story S05E04

All episodes