Index
# A B C D E F G H I J K L M N O P Q R S T U V W Y Z
Tags
Language
Tags

Featured TV Shows


American Horror Story S05E06

Posted By: Tavaz
1080p (FullHD) / BluRay Remux IMDb
American Horror Story S05E06

American Horror Story S05E06
BluRay Remux | MKV | 1920x1080 | English | H264 @ 19402 kbps | DTS | 52 min 2 s | 8.45 GiB
Subtitles: Español, Deutsch, 日本語, Français, English
Genre: Drama, Mystery


An anthology horror drama series centering on different characters and locations, including a house with a murderous past, an asylum, a witch coven, a freak show, a hotel, a farmhouse in Roanoke, a cult, the apocalypse and a summer camp.

American.Horror.Story.S05E06.Room.33.1080p.Blu-ray.Remux.AVC.DTS-HD.MA.5.1.KRaLiMaRKo.part1.rar (4.4 GB)
American.Horror.Story.S05E06.Room.33.1080p.Blu-ray.Remux.AVC.DTS-HD.MA.5.1.KRaLiMaRKo.part2.rar (4.1 GB)



General
Unique ID : 276711469159034017851231064637283053677 (0xD02CB0C0BBB9FC0FAE52DAFA2D75306D)
Complete name : ./2e1ae766cedb01a490c737e03531a9d7.mkv
Format : Matroska
Format version : Version 4 / Version 2
File size : 8.45 GiB
Duration : 52 min 2 s
Overall bit rate mode : Variable
Overall bit rate : 23.3 Mb/s
Movie name : American Horror Story S05E06 Room 33 1080p Blu-ray Remux AVC DTS-HD MA 5.1 - KRaLiMaRKo
Encoded date : UTC 2016-09-24 21:11:10
Writing application : mkvmerge v9.4.2 ('So High') 64bit
Writing library : libebml v1.3.4 + libmatroska v1.4.5

Video
ID : 1
Format : AVC
Format/Info : Advanced Video Codec
Format profile : High@L4.1
Format settings : CABAC / 4 Ref Frames
Format settings, CABAC : Yes
Format settings, RefFrames : 4 frames
Codec ID : V_MPEG4/ISO/AVC
Duration : 52 min 2 s
Bit rate mode : Variable
Bit rate : 19.4 Mb/s
Maximum bit rate : 37.0 Mb/s
Width : 1 920 pixels
Height : 1 080 pixels
Display aspect ratio : 16:9
Frame rate mode : Constant
Frame rate : 23.976 (23976/1000) FPS
Original frame rate : 23.976 (24000/1001) FPS
Color space : YUV
Chroma subsampling : 4:2:0
Bit depth : 8 bits
Scan type : Progressive
Bits/(Pixel*Frame) : 0.390
Stream size : 7.05 GiB (83%)
Language : English
Default : Yes
Forced : No

Audio
ID : 2
Format : DTS
Format/Info : Digital Theater Systems
Format profile : MA / Core
Mode : 16
Format settings, Endianness : Big
Codec ID : A_DTS
Duration : 52 min 2 s
Bit rate mode : Variable / Constant
Bit rate : 3 730 kb/s / 1 509 kb/s
Channel(s) : 6 channels
Channel positions : Front: L C R, Side: L R, LFE
Sampling rate : 48.0 kHz
Frame rate : 93.750 FPS (512 SPF)
Bit depth : 24 bits
Compression mode : Lossless / Lossy
Stream size : 1.36 GiB (16%)
Language : English
Default : Yes
Forced : No

Text #1
ID : 3
Format : PGS
Codec ID : S_HDMV/PGS
Codec ID/Info : Picture based subtitle format used on BDs/HD-DVDs
Duration : 50 min 26 s
Bit rate : 27.9 kb/s
Count of elements : 1176
Stream size : 10.1 MiB (0%)
Language : English
Default : No
Forced : No

Text #2
ID : 4
Format : PGS
Codec ID : S_HDMV/PGS
Codec ID/Info : Picture based subtitle format used on BDs/HD-DVDs
Duration : 51 min 16 s
Bit rate : 23.5 kb/s
Count of elements : 1014
Stream size : 8.64 MiB (0%)
Language : French
Default : No
Forced : No

Text #3
ID : 5
Format : PGS
Codec ID : S_HDMV/PGS
Codec ID/Info : Picture based subtitle format used on BDs/HD-DVDs
Duration : 51 min 16 s
Bit rate : 27.5 kb/s
Count of elements : 1030
Stream size : 10.1 MiB (0%)
Language : German
Default : No
Forced : No

Text #4
ID : 6
Format : PGS
Codec ID : S_HDMV/PGS
Codec ID/Info : Picture based subtitle format used on BDs/HD-DVDs
Duration : 51 min 20 s
Bit rate : 18.9 kb/s
Count of elements : 976
Stream size : 6.96 MiB (0%)
Language : Japanese
Default : No
Forced : No

Text #5
ID : 7
Format : PGS
Codec ID : S_HDMV/PGS
Codec ID/Info : Picture based subtitle format used on BDs/HD-DVDs
Duration : 51 min 16 s
Bit rate : 24.7 kb/s
Count of elements : 1026
Stream size : 9.06 MiB (0%)
Language : Spanish
Default : No
Forced : No

Menu
00:00:00.000 : en:00:00:00.000
00:04:48.872 : en:00:04:48.872
00:17:24.126 : en:00:17:24.126
00:25:55.179 : en:00:25:55.179
00:31:50.117 : en:00:31:50.117
00:38:15.585 : en:00:38:15.585
00:51:22.705 : en:00:51:22.705





American Horror Story S05E06


American Horror Story S05E06


American Horror Story S05E06


American Horror Story S05E06


American Horror Story S05E06

All episodes