Index
# A B C D E F G H I J K L M N O P Q R S T U V W Y Z
Tags
Language
Tags

Featured TV Shows


American Horror Story S05E08

Posted By: Tavaz
1080p (FullHD) / BluRay Remux IMDb
American Horror Story S05E08

American Horror Story S05E08
BluRay Remux | MKV | 1920x1080 | English | H264 @ 19404 kbps | DTS | 45 min 41 s | 7.39 GiB
Subtitles: Español, Deutsch, 日本語, Français, English
Genre: Drama, Mystery


An anthology horror drama series centering on different characters and locations, including a house with a murderous past, an asylum, a witch coven, a freak show, a hotel, a farmhouse in Roanoke, a cult, the apocalypse and a summer camp.

09c790b3502ba89424343d3deed6b78e.mkv (7.4 GB)



General
Unique ID : 220642572559217000286845038061690164632 (0xA5FE36B84F48F931EE809CFFE3721598)
Complete name : ./09c790b3502ba89424343d3deed6b78e.mkv
Format : Matroska
Format version : Version 4 / Version 2
File size : 7.39 GiB
Duration : 45 min 41 s
Overall bit rate mode : Variable
Overall bit rate : 23.1 Mb/s
Movie name : American Horror Story S05E08 The Ten Commandments Killer 1080p Blu-ray Remux AVC DTS-HD MA 5.1 - KRaLiMaRKo
Encoded date : UTC 2016-09-24 21:17:36
Writing application : mkvmerge v9.4.2 ('So High') 64bit
Writing library : libebml v1.3.4 + libmatroska v1.4.5

Video
ID : 1
Format : AVC
Format/Info : Advanced Video Codec
Format profile : High@L4.1
Format settings : CABAC / 4 Ref Frames
Format settings, CABAC : Yes
Format settings, RefFrames : 4 frames
Codec ID : V_MPEG4/ISO/AVC
Duration : 45 min 41 s
Bit rate mode : Variable
Bit rate : 19.4 Mb/s
Maximum bit rate : 37.0 Mb/s
Width : 1 920 pixels
Height : 1 080 pixels
Display aspect ratio : 16:9
Frame rate mode : Constant
Frame rate : 23.976 (23976/1000) FPS
Original frame rate : 23.976 (24000/1001) FPS
Color space : YUV
Chroma subsampling : 4:2:0
Bit depth : 8 bits
Scan type : Progressive
Bits/(Pixel*Frame) : 0.390
Stream size : 6.19 GiB (84%)
Language : English
Default : Yes
Forced : No

Audio
ID : 2
Format : DTS
Format/Info : Digital Theater Systems
Format profile : MA / Core
Mode : 16
Format settings, Endianness : Big
Codec ID : A_DTS
Duration : 45 min 41 s
Bit rate mode : Variable / Constant
Bit rate : 3 556 kb/s / 1 509 kb/s
Channel(s) : 6 channels
Channel positions : Front: L C R, Side: L R, LFE
Sampling rate : 48.0 kHz
Frame rate : 93.750 FPS (512 SPF)
Bit depth : 24 bits
Compression mode : Lossless / Lossy
Stream size : 1.14 GiB (15%)
Language : English
Default : Yes
Forced : No

Text #1
ID : 3
Format : PGS
Codec ID : S_HDMV/PGS
Codec ID/Info : Picture based subtitle format used on BDs/HD-DVDs
Duration : 44 min 48 s
Bit rate : 40.2 kb/s
Count of elements : 1374
Stream size : 12.9 MiB (0%)
Language : English
Default : No
Forced : No

Text #2
ID : 4
Format : PGS
Codec ID : S_HDMV/PGS
Codec ID/Info : Picture based subtitle format used on BDs/HD-DVDs
Duration : 45 min 32 s
Bit rate : 34.5 kb/s
Count of elements : 1294
Stream size : 11.2 MiB (0%)
Language : French
Default : No
Forced : No

Text #3
ID : 5
Format : PGS
Codec ID : S_HDMV/PGS
Codec ID/Info : Picture based subtitle format used on BDs/HD-DVDs
Duration : 45 min 32 s
Bit rate : 42.7 kb/s
Count of elements : 1308
Stream size : 13.9 MiB (0%)
Language : German
Default : No
Forced : No

Text #4
ID : 6
Format : PGS
Codec ID : S_HDMV/PGS
Codec ID/Info : Picture based subtitle format used on BDs/HD-DVDs
Duration : 45 min 34 s
Bit rate : 26.9 kb/s
Count of elements : 1194
Stream size : 8.76 MiB (0%)
Language : Japanese
Default : No
Forced : No

Text #5
ID : 7
Format : PGS
Codec ID : S_HDMV/PGS
Codec ID/Info : Picture based subtitle format used on BDs/HD-DVDs
Duration : 45 min 32 s
Bit rate : 37.4 kb/s
Count of elements : 1298
Stream size : 12.2 MiB (0%)
Language : Spanish
Default : No
Forced : No

Menu
00:00:00.000 : en:00:00:00.000
00:09:42.582 : en:00:09:42.582
00:16:18.186 : en:00:16:18.186
00:23:08.929 : en:00:23:08.929
00:31:16.875 : en:00:31:16.875
00:37:32.041 : en:00:37:32.041
00:45:02.283 : en:00:45:02.283





American Horror Story S05E08


American Horror Story S05E08


American Horror Story S05E08


American Horror Story S05E08


American Horror Story S05E08

All episodes