Index
# A B C D E F G H I J K L M N O P Q R S T U V W Y Z
Tags
Language
Tags

Featured TV Shows


American Horror Story S05E09

Posted By: Tavaz
1080p (FullHD) / WEB-DL IMDb
American Horror Story S05E09

American Horror Story S05E09
WEB-DL | MKV | 1920x1080 | English | H264 @ 4914 kbps | AC-3 @ 384 kbps | 45 min 38 s | 1.72 GiB
Subtitles: English
Genre: Drama, Mystery


An anthology horror drama series centering on different characters and locations, including a house with a murderous past, an asylum, a witch coven, a freak show, a hotel, a farmhouse in Roanoke, a cult, the apocalypse and a summer camp.

3a1d2a5a170f4739893c829d1f1853eb.mkv (1.7 GB)



General
Unique ID : 193213949608870151872962193827553114089 (0x915BA733095708BEB114D9D2136077E9)
Complete name : ./3a1d2a5a170f4739893c829d1f1853eb.mkv
Format : Matroska
Format version : Version 4 / Version 2
File size : 1.72 GiB
Duration : 45 min 38 s
Overall bit rate : 5 406 kb/s
Encoded date : UTC 2015-12-11 22:40:18
Writing application : mkvmerge v8.5.1 ('Where you lead I will follow') 64bit
Writing library : libebml v1.3.3 + libmatroska v1.4.4
Encoded/Released by : B@BTN/HDB

Video
ID : 2
Format : AVC
Format/Info : Advanced Video Codec
Format profile : High@L4
Format settings : CABAC / 4 Ref Frames
Format settings, CABAC : Yes
Format settings, RefFrames : 4 frames
Codec ID : V_MPEG4/ISO/AVC
Duration : 45 min 38 s
Bit rate : 4 915 kb/s
Width : 1 920 pixels
Height : 1 080 pixels
Display aspect ratio : 16:9
Frame rate mode : Constant
Frame rate : 23.976 (24000/1001) FPS
Color space : YUV
Chroma subsampling : 4:2:0
Bit depth : 8 bits
Scan type : Progressive
Bits/(Pixel*Frame) : 0.099
Stream size : 1.57 GiB (91%)
Default : Yes
Forced : No
Color range : Limited
Color primaries : BT.709
Transfer characteristics : BT.709
Matrix coefficients : BT.709

Audio
ID : 3
Format : AC-3
Format/Info : Audio Coding 3
Format settings, Endianness : Big
Codec ID : A_AC3
Duration : 45 min 38 s
Bit rate mode : Constant
Bit rate : 384 kb/s
Channel(s) : 6 channels
Channel positions : Front: L C R, Side: L R, LFE
Sampling rate : 48.0 kHz
Frame rate : 31.250 FPS (1536 SPF)
Bit depth : 16 bits
Compression mode : Lossy
Delay relative to video : -34 ms
Stream size : 125 MiB (7%)
Language : English
Service kind : Complete Main
Default : Yes
Forced : No

Text
ID : 1
Format : UTF-8
Codec ID : S_TEXT/UTF8
Codec ID/Info : UTF-8 Plain Text
Language : English
Default : Yes
Forced : No





American Horror Story S05E09


American Horror Story S05E09


American Horror Story S05E09


American Horror Story S05E09


American Horror Story S05E09

All episodes