Index
# A B C D E F G H I J K L M N O P Q R S T U V W Y Z
Tags
Language
Tags

Featured TV Shows


American Horror Story S05E12

Posted By: Tavaz
720p (HD) / BDRip IMDb
American Horror Story S05E12

American Horror Story S05E12
BDRip | MKV | 1280x720 | English | H264 @ 2300 kbps | AC-3 @ 384 kbps | 49 min 56 s | 959 MiB
Subtitles: English
Genre: Drama, Mystery


An anthology horror drama series centering on different characters and locations, including a house with a murderous past, an asylum, a witch coven, a freak show, a hotel, a farmhouse in Roanoke and a cult.

79e9eeda0d1c4c09a9d8e269d77bf197.mkv (958.7 MB)



General
Unique ID : 202401955406877685438938869277183768826 (0x984532DC2C1FACF6A7042B467148F8FA)
Complete name : ./79e9eeda0d1c4c09a9d8e269d77bf197.mkv
Format : Matroska
Format version : Version 4 / Version 2
File size : 959 MiB
Duration : 49 min 56 s
Overall bit rate mode : Variable
Overall bit rate : 2 684 kb/s
Movie name : American Horror Story S05E12 Be Our Guest 1080p Blu-ray Remux AVC DTS-HD MA 5 1 - KRaLiMaRKo
Encoded date : UTC 2017-01-16 10:15:11
Writing application : mkvmerge v9.7.1 ('Pandemonium') 32bit
Writing library : libebml v1.3.4 + libmatroska v1.4.5

Video
ID : 1
Format : AVC
Format/Info : Advanced Video Codec
Format profile : High 10@L4.1
Format settings : CABAC / 5 Ref Frames
Format settings, CABAC : Yes
Format settings, RefFrames : 5 frames
Codec ID : V_MPEG4/ISO/AVC
Duration : 49 min 56 s
Bit rate mode : Variable
Bit rate : 2 300 kb/s
Maximum bit rate : 62.5 Mb/s
Width : 1 280 pixels
Height : 720 pixels
Display aspect ratio : 16:9
Frame rate mode : Constant
Frame rate : 23.976 (24000/1001) FPS
Color space : YUV
Chroma subsampling : 4:2:0
Bit depth : 10 bits
Scan type : Progressive
Bits/(Pixel*Frame) : 0.104
Stream size : 821 MiB (86%)
Writing library : x264 core 148 r2694 3b70645
Encoding settings : cabac=1 / ref=5 / deblock=1:-1:-1 / analyse=0x3:0x113 / me=umh / subme=8 / psy=1 / psy_rd=1.00:0.15 / mixed_ref=1 / me_range=16 / chroma_me=1 / trellis=1 / 8x8dct=1 / cqm=0 / deadzone=21,11 / fast_pskip=1 / chroma_qp_offset=-3 / threads=18 / lookahead_threads=3 / sliced_threads=0 / nr=0 / decimate=1 / interlaced=0 / bluray_compat=0 / constrained_intra=0 / bframes=3 / b_pyramid=2 / b_adapt=2 / b_bias=0 / direct=3 / weightb=1 / open_gop=0 / weightp=2 / keyint=240 / keyint_min=24 / scenecut=40 / intra_refresh=0 / rc_lookahead=50 / rc=2pass / mbtree=1 / bitrate=2300 / ratetol=1.0 / qcomp=0.60 / qpmin=0 / qpmax=81 / qpstep=4 / cplxblur=20.0 / qblur=0.5 / vbv_maxrate=62500 / vbv_bufsize=62500 / nal_hrd=vbr / filler=0 / ip_ratio=1.40 / aq=1:1.00
Default : Yes
Forced : No

Audio
ID : 2
Format : AC-3
Format/Info : Audio Coding 3
Format settings, Endianness : Big
Codec ID : A_AC3
Duration : 49 min 56 s
Bit rate mode : Constant
Bit rate : 384 kb/s
Channel(s) : 6 channels
Channel positions : Front: L C R, Side: L R, LFE
Sampling rate : 48.0 kHz
Frame rate : 31.250 FPS (1536 SPF)
Bit depth : 16 bits
Compression mode : Lossy
Stream size : 137 MiB (14%)
Language : English
Service kind : Complete Main
Default : Yes
Forced : No

Text #1
ID : 3
Format : UTF-8
Codec ID : S_TEXT/UTF8
Codec ID/Info : UTF-8 Plain Text
Duration : 49 min 2 s
Bit rate : 71 b/s
Count of elements : 702
Stream size : 25.8 KiB (0%)
Language : English
Default : No
Forced : No

Text #2
ID : 4
Format : UTF-8
Codec ID : S_TEXT/UTF8
Codec ID/Info : UTF-8 Plain Text
Duration : 49 min 2 s
Bit rate : 74 b/s
Count of elements : 751
Stream size : 26.8 KiB (0%)
Title : SDH
Language : English
Default : No
Forced : No

Menu
00:00:00.000 : en:00:00:00.000
00:05:09.601 : en:00:05:09.601
00:10:12.570 : en:00:10:12.570
00:18:03.624 : en:00:18:03.624
00:31:48.657 : en:00:31:48.657
00:39:17.981 : en:00:39:17.981
00:49:16.579 : en:00:49:16.579





American Horror Story S05E12


American Horror Story S05E12


American Horror Story S05E12


American Horror Story S05E12


American Horror Story S05E12

All episodes