Featured TV Shows


American Horror Story S07E04

Posted By: Tavaz
1080p (FullHD) / BDRip IMDb
American Horror Story S07E04

American Horror Story S07E04
BluRay Remux | MKV | 1920x1080 | English | H264 @ 27229 kbps | DTS | 50 min 48 s | 11.0 GiB
Subtitles: German, French, English
Genre: Drama, Mystery

American Horror Story is an anthology horror drama series.

American.Horror.Story.S07E04.11.9.1080p.BluRay.REMUX.AVC.DTS-HD.MA.5.1-EPSiLON-WhiteRev=2eade460b3f7f366c27552cd80ac79c9f4d38fce.part1.rar (5.8 GB)
American.Horror.Story.S07E04.11.9.1080p.BluRay.REMUX.AVC.DTS-HD.MA.5.1-EPSiLON-WhiteRev=2eade460b3f7f366c27552cd80ac79c9f4d38fce.part2.rar (5.3 GB)



General
Unique ID : 171727478954696651020104900973246126309 (0x81318267FE0D24FB870BE8971B9D98E5)
Complete name : ./709abe2dce1a499c8a334a7d89e2ef8c.mkv
Format : Matroska
Format version : Version 4 / Version 2
File size : 11.0 GiB
Duration : 50 min 48 s
Overall bit rate mode : Variable
Overall bit rate : 31.0 Mb/s
Encoded date : UTC 2018-08-30 18:36:24
Writing application : mkvmerge v26.0.0 ('In The Game') 64-bit
Writing library : libebml v1.3.6 + libmatroska v1.4.9

Video
ID : 1
Format : AVC
Format/Info : Advanced Video Codec
Format profile : High@L4.1
Format settings : CABAC / 4 Ref Frames
Format settings, CABAC : Yes
Format settings, RefFrames : 4 frames
Codec ID : V_MPEG4/ISO/AVC
Duration : 50 min 48 s
Bit rate mode : Variable
Bit rate : 27.2 Mb/s
Maximum bit rate : 37.0 Mb/s
Width : 1 920 pixels
Height : 1 080 pixels
Display aspect ratio : 16:9
Frame rate mode : Constant
Frame rate : 23.976 (24000/1001) FPS
Color space : YUV
Chroma subsampling : 4:2:0
Bit depth : 8 bits
Scan type : Progressive
Bits/(Pixel*Frame) : 0.548
Stream size : 9.66 GiB (88%)
Title : MPEG-4 AVC Video / 27382 kbps / 1080p / 23.976 fps / 16:9 / High Profile 4.1
Language : English
Default : Yes
Forced : No

Audio
ID : 2
Format : DTS
Format/Info : Digital Theater Systems
Format profile : MA / Core
Mode : 16
Format settings, Endianness : Big
Codec ID : A_DTS
Duration : 50 min 48 s
Bit rate mode : Variable / Constant
Bit rate : 3 487 kb/s / 1 509 kb/s
Channel(s) : 6 channels
Channel positions : Front: L C R, Side: L R, LFE
Sampling rate : 48.0 kHz
Frame rate : 93.750 FPS (512 SPF)
Bit depth : 24 bits
Compression mode : Lossless / Lossy
Stream size : 1.24 GiB (11%)
Title : DTS-HD Master Audio / 5.1 / 48 kHz / 3487 kbps / 24-bit
Language : English
Default : Yes
Forced : No

Text #1
ID : 3
Format : PGS
Codec ID : S_HDMV/PGS
Codec ID/Info : Picture based subtitle format used on BDs/HD-DVDs
Duration : 49 min 49 s
Bit rate : 84.6 kb/s
Count of elements : 1868
Stream size : 30.2 MiB (0%)
Title : SDH
Language : English
Default : No
Forced : No

Text #2
ID : 4
Format : PGS
Codec ID : S_HDMV/PGS
Codec ID/Info : Picture based subtitle format used on BDs/HD-DVDs
Duration : 50 min 44 s
Bit rate : 73.8 kb/s
Count of elements : 1370
Stream size : 26.8 MiB (0%)
Language : French
Default : No
Forced : No

Text #3
ID : 5
Format : PGS
Codec ID : S_HDMV/PGS
Codec ID/Info : Picture based subtitle format used on BDs/HD-DVDs
Duration : 50 min 44 s
Bit rate : 72.7 kb/s
Count of elements : 1358
Stream size : 26.4 MiB (0%)
Language : German
Default : No
Forced : No

Menu
00:00:00.000 : en:Chapter 1
00:05:28.578 : en:Chapter 2
00:22:44.655 : en:Chapter 3
00:33:30.634 : en:Chapter 4
00:38:13.458 : en:Chapter 5
00:50:06.253 : en:Chapter 6





American Horror Story S07E04


American Horror Story S07E04


American Horror Story S07E04


American Horror Story S07E04


American Horror Story S07E04

All episodes