Index
# A B C D E F G H I J K L M N O P Q R S T U V W Y Z
Tags
Language
Tags

Featured TV Shows


American Horror Story S07E04

Posted By: Tavaz
1080p (FullHD) / WEB-DL IMDb
American Horror Story S07E04

American Horror Story S07E04
WEB-DL | MKV | 1920x1080 | English | H264 @ 5130 kbps | AC-3 @ 384 kbps | 50 min 47 s | 2.00 GiB
Subtitles: English
Genre: Dramma, Mistero


Serie TV antologica di genere horror del 2011, ideata da Ryan Murphy e Brad Falchuk.

07c2fd9eef0c4fa1a8c4a8d299cf8349.mkv (2.0 GB)



General
Unique ID : 229677804815511194845999798385133288969 (0xACCA561041494794AB3A4CF5BA34FE09)
Complete name : ./07c2fd9eef0c4fa1a8c4a8d299cf8349.mkv
Format : Matroska
Format version : Version 4 / Version 2
File size : 2.00 GiB
Duration : 50 min 47 s
Overall bit rate : 5 626 kb/s
Encoded date : UTC 2017-09-27 11:37:55
Writing application : mkvmerge v9.2.0 ('Photograph') 64bit
Writing library : libebml v1.3.3 + libmatroska v1.4.4
Encoded/Released by : B@BTN/HDB
Group : ViSUM

Video
ID : 2
Format : AVC
Format/Info : Advanced Video Codec
Format profile : High@L4
Format settings : CABAC / 4 Ref Frames
Format settings, CABAC : Yes
Format settings, RefFrames : 4 frames
Codec ID : V_MPEG4/ISO/AVC
Duration : 50 min 47 s
Bit rate : 5 130 kb/s
Width : 1 920 pixels
Height : 1 080 pixels
Display aspect ratio : 16:9
Frame rate mode : Constant
Frame rate : 23.976 (24000/1001) FPS
Color space : YUV
Chroma subsampling : 4:2:0
Bit depth : 8 bits
Scan type : Progressive
Bits/(Pixel*Frame) : 0.103
Stream size : 1.82 GiB (91%)
Default : Yes
Forced : No
Color range : Limited
Color primaries : BT.709
Transfer characteristics : BT.709
Matrix coefficients : BT.709

Audio
ID : 3
Format : AC-3
Format/Info : Audio Coding 3
Format settings, Endianness : Big
Codec ID : A_AC3
Duration : 50 min 47 s
Bit rate mode : Constant
Bit rate : 384 kb/s
Channel(s) : 6 channels
Channel positions : Front: L C R, Side: L R, LFE
Sampling rate : 48.0 kHz
Frame rate : 31.250 FPS (1536 SPF)
Bit depth : 16 bits
Compression mode : Lossy
Delay relative to video : -12 ms
Stream size : 140 MiB (7%)
Language : English
Service kind : Complete Main
Default : Yes
Forced : No

Text
ID : 1
Format : UTF-8
Codec ID : S_TEXT/UTF8
Codec ID/Info : UTF-8 Plain Text
Language : English
Default : No
Forced : No





American Horror Story S07E04


American Horror Story S07E04


American Horror Story S07E04


American Horror Story S07E04


American Horror Story S07E04

All episodes