Featured TV Shows


American Horror Story S07E05

Posted By: Tavaz
1080p (FullHD) / BDRip IMDb
American Horror Story S07E05

American Horror Story S07E05
BluRay Remux | MKV | 1920x1080 | English | H264 @ 27728 kbps | DTS | 41 min 18 s | 9.04 GiB
Subtitles: German, French, English
Genre: Drama, Mystery

American Horror Story is an anthology horror drama series.

American.Horror.Story.S07E05.Holes.1080p.BluRay.REMUX.AVC.DTS-HD.MA.5.1-EPSiLON-WhiteRev=d143fc53f1078bdfd86863dfac3bd09a395928f7.part1.rar (4.7 GB)
American.Horror.Story.S07E05.Holes.1080p.BluRay.REMUX.AVC.DTS-HD.MA.5.1-EPSiLON-WhiteRev=d143fc53f1078bdfd86863dfac3bd09a395928f7.part2.rar (4.4 GB)



General
Unique ID : 316838409701324707942327030311935387921 (0xEE5CDBAAF8ECEB0C1C2804211789A911)
Complete name : ./b5c461c69b924525bcad8812dcfb47e8.mkv
Format : Matroska
Format version : Version 4 / Version 2
File size : 9.04 GiB
Duration : 41 min 18 s
Overall bit rate mode : Variable
Overall bit rate : 31.3 Mb/s
Encoded date : UTC 2018-08-30 18:39:07
Writing application : mkvmerge v26.0.0 ('In The Game') 64-bit
Writing library : libebml v1.3.6 + libmatroska v1.4.9

Video
ID : 1
Format : AVC
Format/Info : Advanced Video Codec
Format profile : High@L4.1
Format settings : CABAC / 4 Ref Frames
Format settings, CABAC : Yes
Format settings, RefFrames : 4 frames
Codec ID : V_MPEG4/ISO/AVC
Duration : 41 min 18 s
Bit rate mode : Variable
Bit rate : 27.7 Mb/s
Maximum bit rate : 37.0 Mb/s
Width : 1 920 pixels
Height : 1 080 pixels
Display aspect ratio : 16:9
Frame rate mode : Constant
Frame rate : 23.976 (24000/1001) FPS
Color space : YUV
Chroma subsampling : 4:2:0
Bit depth : 8 bits
Scan type : Progressive
Bits/(Pixel*Frame) : 0.558
Stream size : 8.00 GiB (89%)
Title : MPEG-4 AVC Video / 27949 kbps / 1080p / 23.976 fps / 16:9 / High Profile 4.1
Language : English
Default : Yes
Forced : No

Audio
ID : 2
Format : DTS
Format/Info : Digital Theater Systems
Format profile : MA / Core
Mode : 16
Format settings, Endianness : Big
Codec ID : A_DTS
Duration : 41 min 18 s
Bit rate mode : Variable / Constant
Bit rate : 3 405 kb/s / 1 509 kb/s
Channel(s) : 6 channels
Channel positions : Front: L C R, Side: L R, LFE
Sampling rate : 48.0 kHz
Frame rate : 93.750 FPS (512 SPF)
Bit depth : 24 bits
Compression mode : Lossless / Lossy
Stream size : 1 006 MiB (11%)
Title : DTS-HD Master Audio / 5.1 / 48 kHz / 3405 kbps / 24-bit
Language : English
Default : Yes
Forced : No

Text #1
ID : 3
Format : PGS
Codec ID : S_HDMV/PGS
Codec ID/Info : Picture based subtitle format used on BDs/HD-DVDs
Duration : 40 min 15 s
Bit rate : 70.3 kb/s
Count of elements : 1360
Stream size : 20.3 MiB (0%)
Title : SDH
Language : English
Default : No
Forced : No

Text #2
ID : 4
Format : PGS
Codec ID : S_HDMV/PGS
Codec ID/Info : Picture based subtitle format used on BDs/HD-DVDs
Duration : 41 min 13 s
Bit rate : 62.4 kb/s
Count of elements : 1020
Stream size : 18.4 MiB (0%)
Language : French
Default : No
Forced : No

Text #3
ID : 5
Format : PGS
Codec ID : S_HDMV/PGS
Codec ID/Info : Picture based subtitle format used on BDs/HD-DVDs
Duration : 41 min 13 s
Bit rate : 59.9 kb/s
Count of elements : 1026
Stream size : 17.7 MiB (0%)
Language : German
Default : No
Forced : No

Menu
00:00:00.000 : en:Chapter 1
00:05:28.328 : en:Chapter 2
00:19:30.586 : en:Chapter 3
00:24:51.115 : en:Chapter 4
00:34:02.916 : en:Chapter 5
00:40:36.601 : en:Chapter 6





American Horror Story S07E05


American Horror Story S07E05


American Horror Story S07E05


American Horror Story S07E05


American Horror Story S07E05

All episodes