Index
# A B C D E F G H I J K L M N O P Q R S T U V W Y Z
Tags
Language
Tags

Featured TV Shows


American Horror Story S07E07

Posted By: Tavaz
1080p (FullHD) / WEB-DL IMDb
American Horror Story S07E07

American Horror Story S07E07
WEB-DL | MKV | 1920x1080 | English | H264 @ 5007 kbps | AC-3 @ 384 kbps | 44 min 22 s | 1.71 GiB
Subtitles: English
Genre: Dramma, Mistero


Serie TV antologica di genere horror del 2011, ideata da Ryan Murphy e Brad Falchuk.

b58573484e2a46f3b9a085239c03037a.mkv (1.7 GB)



General
Unique ID : 173578458131228386197446101981624574383 (0x8295FEB9BB77905CB5F14E459D88A1AF)
Complete name : ./b58573484e2a46f3b9a085239c03037a.mkv
Format : Matroska
Format version : Version 4 / Version 2
File size : 1.71 GiB
Duration : 44 min 22 s
Overall bit rate : 5 501 kb/s
Encoded date : UTC 2017-10-25 16:33:31
Writing application : mkvmerge v9.2.0 ('Photograph') 64bit
Writing library : libebml v1.3.3 + libmatroska v1.4.4
Encoded/Released by : B@BTN/HDB
Group : ViSUM

Video
ID : 1
Format : AVC
Format/Info : Advanced Video Codec
Format profile : High@L4
Format settings : CABAC / 4 Ref Frames
Format settings, CABAC : Yes
Format settings, RefFrames : 4 frames
Codec ID : V_MPEG4/ISO/AVC
Duration : 44 min 22 s
Bit rate : 5 007 kb/s
Width : 1 920 pixels
Height : 1 080 pixels
Display aspect ratio : 16:9
Frame rate mode : Constant
Frame rate : 23.976 (24000/1001) FPS
Color space : YUV
Chroma subsampling : 4:2:0
Bit depth : 8 bits
Scan type : Progressive
Bits/(Pixel*Frame) : 0.101
Stream size : 1.55 GiB (91%)
Default : Yes
Forced : No
Color range : Limited
Color primaries : BT.709
Transfer characteristics : BT.709
Matrix coefficients : BT.709

Audio
ID : 2
Format : AC-3
Format/Info : Audio Coding 3
Format settings, Endianness : Big
Codec ID : A_AC3
Duration : 44 min 22 s
Bit rate mode : Constant
Bit rate : 384 kb/s
Channel(s) : 6 channels
Channel positions : Front: L C R, Side: L R, LFE
Sampling rate : 48.0 kHz
Frame rate : 31.250 FPS (1536 SPF)
Bit depth : 16 bits
Compression mode : Lossy
Delay relative to video : -12 ms
Stream size : 122 MiB (7%)
Language : English
Service kind : Complete Main
Default : Yes
Forced : No

Text
ID : 3
Format : UTF-8
Codec ID : S_TEXT/UTF8
Codec ID/Info : UTF-8 Plain Text
Language : English
Default : No
Forced : No





American Horror Story S07E07


American Horror Story S07E07


American Horror Story S07E07


American Horror Story S07E07


American Horror Story S07E07

All episodes