Featured TV Shows


American Horror Story S07E07

Posted By: Tavaz
1080p (FullHD) / BDRip IMDb
American Horror Story S07E07

American Horror Story S07E07
BluRay Remux | MKV | 1920x1080 | English | H264 @ 26775 kbps | DTS | 44 min 24 s | 9.47 GiB
Subtitles: German, French, English
Genre: Drama, Mystery

American Horror Story is an anthology horror drama series.

American.Horror.Story.S07E07.Valerie.Solanas.Died.for.Your.Sins.Scumbag.1080p.BluRay.REMUX.AVC.DTS-HD.MA.5.1-EPSiLON-WhiteRev=90b1cd7e0d968ec36d2f20f6652eaded5f8cfec4.part1.rar (5.0 GB)
American.Horror.Story.S07E07.Valerie.Solanas.Died.for.Your.Sins.Scumbag.1080p.BluRay.REMUX.AVC.DTS-HD.MA.5.1-EPSiLON-WhiteRev=90b1cd7e0d968ec36d2f20f6652eaded5f8cfec4.part2.rar (4.6 GB)



General
Unique ID : 296574424729870405737113033753431283548 (0xDF1E28128660005DE9BD2CBF78EA975C)
Complete name : ./75a29d016d3b4cabb66fb7dc95dec814.mkv
Format : Matroska
Format version : Version 4 / Version 2
File size : 9.47 GiB
Duration : 44 min 24 s
Overall bit rate mode : Variable
Overall bit rate : 30.5 Mb/s
Encoded date : UTC 2018-08-30 18:43:00
Writing application : mkvmerge v26.0.0 ('In The Game') 64-bit
Writing library : libebml v1.3.6 + libmatroska v1.4.9

Video
ID : 1
Format : AVC
Format/Info : Advanced Video Codec
Format profile : High@L4.1
Format settings : CABAC / 4 Ref Frames
Format settings, CABAC : Yes
Format settings, RefFrames : 4 frames
Codec ID : V_MPEG4/ISO/AVC
Duration : 44 min 24 s
Bit rate mode : Variable
Bit rate : 26.8 Mb/s
Maximum bit rate : 37.0 Mb/s
Width : 1 920 pixels
Height : 1 080 pixels
Display aspect ratio : 16:9
Frame rate mode : Constant
Frame rate : 23.976 (24000/1001) FPS
Color space : YUV
Chroma subsampling : 4:2:0
Bit depth : 8 bits
Scan type : Progressive
Bits/(Pixel*Frame) : 0.539
Stream size : 8.31 GiB (88%)
Title : MPEG-4 AVC Video / 26923 kbps / 1080p / 23.976 fps / 16:9 / High Profile 4.1
Language : English
Default : Yes
Forced : No

Audio
ID : 2
Format : DTS
Format/Info : Digital Theater Systems
Format profile : MA / Core
Mode : 16
Format settings, Endianness : Big
Codec ID : A_DTS
Duration : 44 min 24 s
Bit rate mode : Variable / Constant
Bit rate : 3 518 kb/s / 1 509 kb/s
Channel(s) : 6 channels
Channel positions : Front: L C R, Side: L R, LFE
Sampling rate : 48.0 kHz
Frame rate : 93.750 FPS (512 SPF)
Bit depth : 24 bits
Compression mode : Lossless / Lossy
Stream size : 1.09 GiB (12%)
Title : DTS-HD Master Audio / 5.1 / 48 kHz / 3518 kbps / 24-bit
Language : English
Default : Yes
Forced : No

Text #1
ID : 3
Format : PGS
Codec ID : S_HDMV/PGS
Codec ID/Info : Picture based subtitle format used on BDs/HD-DVDs
Duration : 43 min 29 s
Bit rate : 85.0 kb/s
Count of elements : 1598
Stream size : 26.4 MiB (0%)
Title : SDH
Language : English
Default : No
Forced : No

Text #2
ID : 4
Format : PGS
Codec ID : S_HDMV/PGS
Codec ID/Info : Picture based subtitle format used on BDs/HD-DVDs
Duration : 44 min 21 s
Bit rate : 78.4 kb/s
Count of elements : 1263
Stream size : 24.9 MiB (0%)
Language : French
Default : No
Forced : No

Text #3
ID : 5
Format : PGS
Codec ID : S_HDMV/PGS
Codec ID/Info : Picture based subtitle format used on BDs/HD-DVDs
Duration : 44 min 21 s
Bit rate : 78.5 kb/s
Count of elements : 1248
Stream size : 24.9 MiB (0%)
Language : German
Default : No
Forced : No

Menu
00:00:00.000 : en:Chapter 1
00:07:01.630 : en:Chapter 2
00:14:01.549 : en:Chapter 3
00:22:16.085 : en:Chapter 4
00:35:18.825 : en:Chapter 5
00:43:42.703 : en:Chapter 6





American Horror Story S07E07


American Horror Story S07E07


American Horror Story S07E07


American Horror Story S07E07


American Horror Story S07E07

All episodes