Index
# A B C D E F G H I J K L M N O P Q R S T U V W Y Z
Tags
Language
Tags

Featured TV Shows


American Horror Story S07E08

Posted By: Tavaz
1080p (FullHD) / BDRip IMDb
American Horror Story S07E08

American Horror Story S07E08
BluRay Remux | MKV | 1920x1080 | English | H264 @ 27745 kbps | DTS | 43 min 54 s | 9.67 GiB
Subtitles: German, French, English
Genre: Drama, Mystery

American Horror Story is an anthology horror drama series.

American.Horror.Story.S07E08.Winter.of.Our.Discontent.1080p.BluRay.REMUX.AVC.DTS-HD.MA.5.1-EPSiLON-WhiteRev=82aac8f305f5588b8ff9caa3ab0ad66df4963a56.part1.rar (5.1 GB)
American.Horror.Story.S07E08.Winter.of.Our.Discontent.1080p.BluRay.REMUX.AVC.DTS-HD.MA.5.1-EPSiLON-WhiteRev=82aac8f305f5588b8ff9caa3ab0ad66df4963a56.part2.rar (4.7 GB)



General
Unique ID : 130482055712704798916669804232131320457 (0x6229EE095A9D708B5C308C2D25CD9A89)
Complete name : ./317a7a6c541f4822a77f694478dc73fe.mkv
Format : Matroska
Format version : Version 4 / Version 2
File size : 9.67 GiB
Duration : 43 min 54 s
Overall bit rate mode : Variable
Overall bit rate : 31.5 Mb/s
Encoded date : UTC 2018-08-30 18:49:31
Writing application : mkvmerge v26.0.0 ('In The Game') 64-bit
Writing library : libebml v1.3.6 + libmatroska v1.4.9

Video
ID : 1
Format : AVC
Format/Info : Advanced Video Codec
Format profile : High@L4.1
Format settings : CABAC / 4 Ref Frames
Format settings, CABAC : Yes
Format settings, RefFrames : 4 frames
Codec ID : V_MPEG4/ISO/AVC
Duration : 43 min 54 s
Bit rate mode : Variable
Bit rate : 27.7 Mb/s
Maximum bit rate : 37.0 Mb/s
Width : 1 920 pixels
Height : 1 080 pixels
Display aspect ratio : 16:9
Frame rate mode : Constant
Frame rate : 23.976 (24000/1001) FPS
Color space : YUV
Chroma subsampling : 4:2:0
Bit depth : 8 bits
Scan type : Progressive
Bits/(Pixel*Frame) : 0.558
Stream size : 8.51 GiB (88%)
Title : MPEG-4 AVC Video / 27891 kbps / 1080p / 23.976 fps / 16:9 / High Profile 4.1
Language : English
Default : Yes
Forced : No

Audio
ID : 2
Format : DTS
Format/Info : Digital Theater Systems
Format profile : MA / Core
Mode : 16
Format settings, Endianness : Big
Codec ID : A_DTS
Duration : 43 min 54 s
Bit rate mode : Variable / Constant
Bit rate : 3 566 kb/s / 1 509 kb/s
Channel(s) : 6 channels
Channel positions : Front: L C R, Side: L R, LFE
Sampling rate : 48.0 kHz
Frame rate : 93.750 FPS (512 SPF)
Bit depth : 24 bits
Compression mode : Lossless / Lossy
Stream size : 1.09 GiB (11%)
Title : DTS-HD Master Audio / 5.1 / 48 kHz / 3566 kbps / 24-bit
Language : English
Default : Yes
Forced : No

Text #1
ID : 3
Format : PGS
Codec ID : S_HDMV/PGS
Codec ID/Info : Picture based subtitle format used on BDs/HD-DVDs
Duration : 42 min 54 s
Bit rate : 76.1 kb/s
Count of elements : 1558
Stream size : 23.4 MiB (0%)
Title : SDH
Language : English
Default : No
Forced : No

Text #2
ID : 4
Format : PGS
Codec ID : S_HDMV/PGS
Codec ID/Info : Picture based subtitle format used on BDs/HD-DVDs
Duration : 43 min 20 s
Bit rate : 66.1 kb/s
Count of elements : 1118
Stream size : 20.5 MiB (0%)
Language : French
Default : No
Forced : No

Text #3
ID : 5
Format : PGS
Codec ID : S_HDMV/PGS
Codec ID/Info : Picture based subtitle format used on BDs/HD-DVDs
Duration : 43 min 16 s
Bit rate : 63.3 kb/s
Count of elements : 1114
Stream size : 19.6 MiB (0%)
Language : German
Default : No
Forced : No

Menu
00:00:00.000 : en:Chapter 1
00:03:53.191 : en:Chapter 2
00:16:29.197 : en:Chapter 3
00:29:51.915 : en:Chapter 4
00:36:29.187 : en:Chapter 5
00:43:12.590 : en:Chapter 6





American Horror Story S07E08


American Horror Story S07E08


American Horror Story S07E08


American Horror Story S07E08


American Horror Story S07E08

All episodes