Featured TV Shows


American Horror Story S07E09

Posted By: Tavaz
1080p (FullHD) / BDRip IMDb
American Horror Story S07E09

American Horror Story S07E09
BluRay Remux | MKV | 1920x1080 | English | H264 @ 26848 kbps | DTS | 50 min 19 s | 10.7 GiB
Subtitles: German, French, English
Genre: Drama, Mystery

American Horror Story is an anthology horror drama series.

American.Horror.Story.S07E09.Drink.the.Kool-Aid.1080p.BluRay.REMUX.AVC.DTS-HD.MA.5.1-EPSiLON-WhiteRev=4304f857ba496dc6a1109af53ad7a43be3397eff.part1.rar (5.6 GB)
American.Horror.Story.S07E09.Drink.the.Kool-Aid.1080p.BluRay.REMUX.AVC.DTS-HD.MA.5.1-EPSiLON-WhiteRev=4304f857ba496dc6a1109af53ad7a43be3397eff.part2.rar (5.2 GB)



General
Unique ID : 129225891304755477751106875691686486427 (0x613800597B8A9BDA2EFF57E40794E19B)
Complete name : ./e4e3b47637c74499bc1290f0be4d1459.mkv
Format : Matroska
Format version : Version 4 / Version 2
File size : 10.7 GiB
Duration : 50 min 19 s
Overall bit rate mode : Variable
Overall bit rate : 30.6 Mb/s
Encoded date : UTC 2018-08-30 18:53:58
Writing application : mkvmerge v26.0.0 ('In The Game') 64-bit
Writing library : libebml v1.3.6 + libmatroska v1.4.9

Video
ID : 1
Format : AVC
Format/Info : Advanced Video Codec
Format profile : High@L4.1
Format settings : CABAC / 4 Ref Frames
Format settings, CABAC : Yes
Format settings, RefFrames : 4 frames
Codec ID : V_MPEG4/ISO/AVC
Duration : 50 min 19 s
Bit rate mode : Variable
Bit rate : 26.8 Mb/s
Maximum bit rate : 37.0 Mb/s
Width : 1 920 pixels
Height : 1 080 pixels
Display aspect ratio : 16:9
Frame rate mode : Constant
Frame rate : 23.976 (24000/1001) FPS
Color space : YUV
Chroma subsampling : 4:2:0
Bit depth : 8 bits
Scan type : Progressive
Bits/(Pixel*Frame) : 0.540
Stream size : 9.44 GiB (88%)
Title : MPEG-4 AVC Video / 26992 kbps / 1080p / 23.976 fps / 16:9 / High Profile 4.1
Language : English
Default : Yes
Forced : No

Audio
ID : 2
Format : DTS
Format/Info : Digital Theater Systems
Format profile : MA / Core
Mode : 16
Format settings, Endianness : Big
Codec ID : A_DTS
Duration : 50 min 19 s
Bit rate mode : Variable / Constant
Bit rate : 3 490 kb/s / 1 509 kb/s
Channel(s) : 6 channels
Channel positions : Front: L C R, Side: L R, LFE
Sampling rate : 48.0 kHz
Frame rate : 93.750 FPS (512 SPF)
Bit depth : 24 bits
Compression mode : Lossless / Lossy
Stream size : 1.23 GiB (11%)
Title : DTS-HD Master Audio / 5.1 / 48 kHz / 3490 kbps / 24-bit
Language : English
Default : Yes
Forced : No

Text #1
ID : 3
Format : PGS
Codec ID : S_HDMV/PGS
Codec ID/Info : Picture based subtitle format used on BDs/HD-DVDs
Duration : 49 min 13 s
Bit rate : 74.1 kb/s
Count of elements : 1726
Stream size : 26.1 MiB (0%)
Title : SDH
Language : English
Default : No
Forced : No

Text #2
ID : 4
Format : PGS
Codec ID : S_HDMV/PGS
Codec ID/Info : Picture based subtitle format used on BDs/HD-DVDs
Duration : 50 min 15 s
Bit rate : 68.6 kb/s
Count of elements : 1338
Stream size : 24.7 MiB (0%)
Language : French
Default : No
Forced : No

Text #3
ID : 5
Format : PGS
Codec ID : S_HDMV/PGS
Codec ID/Info : Picture based subtitle format used on BDs/HD-DVDs
Duration : 50 min 15 s
Bit rate : 67.8 kb/s
Count of elements : 1318
Stream size : 24.4 MiB (0%)
Language : German
Default : No
Forced : No

Menu
00:00:00.000 : en:Chapter 1
00:08:42.981 : en:Chapter 2
00:17:10.404 : en:Chapter 3
00:23:21.233 : en:Chapter 4
00:30:18.817 : en:Chapter 5
00:37:58.359 : en:Chapter 6
00:49:37.057 : en:Chapter 7





American Horror Story S07E09


American Horror Story S07E09


American Horror Story S07E09


American Horror Story S07E09


American Horror Story S07E09

All episodes