Index
# A B C D E F G H I J K L M N O P Q R S T U V W Y Z
Tags
Language
Tags

Featured TV Shows


American Horror Story S07E11

Posted By: Tavaz
1080p (FullHD) / BDRip IMDb
American Horror Story S07E11

American Horror Story S07E11
BluRay Remux | MKV | 1920x1080 | English | H264 @ 26927 kbps | DTS | 44 min 51 s | 9.61 GiB
Subtitles: German, French, English
Genre: Drama, Mystery

American Horror Story is an anthology horror drama series.

American.Horror.Story.S07E11.Great.Again.1080p.BluRay.REMUX.AVC.DTS-HD.MA.5.1-EPSiLON-WhiteRev=77794667ba1d6e8e55b1cca1a891691c8b72adc4.part1.rar (5.0 GB)
American.Horror.Story.S07E11.Great.Again.1080p.BluRay.REMUX.AVC.DTS-HD.MA.5.1-EPSiLON-WhiteRev=77794667ba1d6e8e55b1cca1a891691c8b72adc4.part2.rar (4.7 GB)



General
Unique ID : 250217237605174877156769543018529090933 (0xBC3E1648F22706C0C7D3B80CF3DEED75)
Complete name : ./b0b53f6dc7424bcdb854082a83374962.mkv
Format : Matroska
Format version : Version 4 / Version 2
File size : 9.61 GiB
Duration : 44 min 51 s
Overall bit rate mode : Variable
Overall bit rate : 30.7 Mb/s
Encoded date : UTC 2018-08-30 18:58:57
Writing application : mkvmerge v26.0.0 ('In The Game') 64-bit
Writing library : libebml v1.3.6 + libmatroska v1.4.9

Video
ID : 1
Format : AVC
Format/Info : Advanced Video Codec
Format profile : High@L4.1
Format settings : CABAC / 4 Ref Frames
Format settings, CABAC : Yes
Format settings, RefFrames : 4 frames
Codec ID : V_MPEG4/ISO/AVC
Duration : 44 min 51 s
Bit rate mode : Variable
Bit rate : 26.9 Mb/s
Maximum bit rate : 37.0 Mb/s
Width : 1 920 pixels
Height : 1 080 pixels
Display aspect ratio : 16:9
Frame rate mode : Constant
Frame rate : 23.976 (24000/1001) FPS
Color space : YUV
Chroma subsampling : 4:2:0
Bit depth : 8 bits
Scan type : Progressive
Bits/(Pixel*Frame) : 0.542
Stream size : 8.44 GiB (88%)
Title : MPEG-4 AVC Video / 27188 kbps / 1080p / 23.976 fps / 16:9 / High Profile 4.1
Language : English
Default : Yes
Forced : No

Audio
ID : 2
Format : DTS
Format/Info : Digital Theater Systems
Format profile : MA / Core
Mode : 16
Format settings, Endianness : Big
Codec ID : A_DTS
Duration : 44 min 51 s
Bit rate mode : Variable / Constant
Bit rate : 3 537 kb/s / 1 509 kb/s
Channel(s) : 6 channels
Channel positions : Front: L C R, Side: L R, LFE
Sampling rate : 48.0 kHz
Frame rate : 93.750 FPS (512 SPF)
Bit depth : 24 bits
Compression mode : Lossless / Lossy
Stream size : 1.11 GiB (12%)
Title : DTS-HD Master Audio / 5.1 / 48 kHz / 3537 kbps / 24-bit
Language : English
Default : Yes
Forced : No

Text #1
ID : 3
Format : PGS
Codec ID : S_HDMV/PGS
Codec ID/Info : Picture based subtitle format used on BDs/HD-DVDs
Duration : 43 min 54 s
Bit rate : 76.1 kb/s
Count of elements : 1602
Stream size : 23.9 MiB (0%)
Title : SDH
Language : English
Default : No
Forced : No

Text #2
ID : 4
Format : PGS
Codec ID : S_HDMV/PGS
Codec ID/Info : Picture based subtitle format used on BDs/HD-DVDs
Duration : 44 min 48 s
Bit rate : 71.1 kb/s
Count of elements : 1208
Stream size : 22.8 MiB (0%)
Language : French
Default : No
Forced : No

Text #3
ID : 5
Format : PGS
Codec ID : S_HDMV/PGS
Codec ID/Info : Picture based subtitle format used on BDs/HD-DVDs
Duration : 44 min 48 s
Bit rate : 69.9 kb/s
Count of elements : 1192
Stream size : 22.4 MiB (0%)
Language : German
Default : No
Forced : No

Menu
00:00:00.000 : en:Chapter 1
00:05:18.902 : en:Chapter 2
00:21:14.273 : en:Chapter 3
00:30:21.319 : en:Chapter 4
00:35:15.280 : en:Chapter 5
00:44:09.730 : en:Chapter 6





American Horror Story S07E11


American Horror Story S07E11


American Horror Story S07E11


American Horror Story S07E11


American Horror Story S07E11

All episodes