Featured TV Shows


American Horror Story S08E01

Posted By: Tavaz
SD / WEBRip IMDb
American Horror Story S08E01

American Horror Story S08E01
WEBRip | MKV | 720x404 | German | H264 @ 630 kbps | AC-3 @ 192 kbps | 44 min 13 s | 265 MiB
Genre: Drama, Mystery

Die Serienanthologie American Horror Story erzählt von Staffel zu Staffel verschiedene, in sich abgeschlossene Geschichten, die sich mit unterschiedlichen Arten von Horror beschäftigen. Während jedes Jahr die Thematik sowie das Setting und viele Darsteller gewechselt werden, kehren einige Schauspieler mehrmals in unterschiedlichen Rollen zur Serie zurück.

AH S08E01 German.mkv (265.5 MB)



General
Unique ID : 63750371075815889979674917932802161858 (0x2FF5DFF6F5F034ACC01290863942BCC2)
Complete name : ./Amerikanische Horrorgeschichte S08E01 German/AH S08E01 German.mkv
Format : Matroska
Format version : Version 2
File size : 265 MiB
Duration : 44 min 13 s
Overall bit rate : 839 kb/s
Movie name : American.Horror.Story.S08E01.Das.Ende.GERMAN.DUBBED.WS.WebRip.x264-TVP
Encoded date : UTC 2018-11-15 20:43:57
Writing application : mkvmerge v5.6.0 ('Kenya Kane') built on May 28 2012 06:47:39
Writing library : libebml v1.2.2 + libmatroska v1.3.0

Video
ID : 1
Format : AVC
Format/Info : Advanced Video Codec
Format profile : Main@L3.1
Format settings : CABAC / 5 Ref Frames
Format settings, CABAC : Yes
Format settings, RefFrames : 5 frames
Codec ID : V_MPEG4/ISO/AVC
Duration : 44 min 13 s
Bit rate : 631 kb/s
Width : 720 pixels
Height : 404 pixels
Display aspect ratio : 16:9
Frame rate mode : Constant
Frame rate : 25.000 FPS
Color space : YUV
Chroma subsampling : 4:2:0
Bit depth : 8 bits
Scan type : Progressive
Bits/(Pixel*Frame) : 0.087
Stream size : 199 MiB (75%)
Title : tvp-americanhorror-s08e01-480p
Writing library : x264 core 155 r2901 7d0ff22
Encoding settings : cabac=1 / ref=5 / deblock=1:-2:-2 / analyse=0x1:0x111 / me=hex / subme=8 / psy=1 / psy_rd=1.00:0.00 / mixed_ref=1 / me_range=16 / chroma_me=1 / trellis=2 / 8x8dct=0 / cqm=0 / deadzone=21,11 / fast_pskip=1 / chroma_qp_offset=-2 / threads=12 / lookahead_threads=2 / sliced_threads=0 / nr=0 / decimate=1 / interlaced=0 / bluray_compat=0 / constrained_intra=0 / bframes=3 / b_pyramid=2 / b_adapt=1 / b_bias=0 / direct=3 / weightb=1 / open_gop=0 / weightp=2 / keyint=250 / keyint_min=25 / scenecut=40 / intra_refresh=0 / rc_lookahead=50 / rc=crf / mbtree=1 / crf=19.0 / qcomp=0.60 / qpmin=0 / qpmax=69 / qpstep=4 / vbv_maxrate=14000 / vbv_bufsize=14000 / crf_max=0.0 / nal_hrd=none / filler=0 / ip_ratio=1.40 / aq=1:1.00
Language : German
Default : Yes
Forced : Yes
Color range : Limited
Color primaries : BT.709
Transfer characteristics : BT.709
Matrix coefficients : BT.709

Audio
ID : 2
Format : AC-3
Format/Info : Audio Coding 3
Format settings, Endianness : Big
Codec ID : A_AC3
Duration : 44 min 13 s
Bit rate mode : Constant
Bit rate : 192 kb/s
Channel(s) : 2 channels
Channel positions : Front: L R
Sampling rate : 48.0 kHz
Frame rate : 31.250 FPS (1536 SPF)
Bit depth : 16 bits
Compression mode : Lossy
Stream size : 60.7 MiB (23%)
Language : German
Service kind : Complete Main
Default : Yes
Forced : Yes





American Horror Story S08E01


American Horror Story S08E01


American Horror Story S08E01


American Horror Story S08E01


American Horror Story S08E01

All episodes