Featured TV Shows


American Horror Story S08E07

Posted By: Tavaz
720p (HD) / WEBRip IMDb
American Horror Story S08E07

American Horror Story S08E07
WEB-DL | MKV | 1280x720 | German / English | H264 @ 1481 kbps | AC-3 @ 384 kbps | 42 min 22 s | 696 MiB
Genre: Drama, Mystery

Die Serienanthologie American Horror Story erzählt von Staffel zu Staffel verschiedene, in sich abgeschlossene Geschichten, die sich mit unterschiedlichen Arten von Horror beschäftigen. Während jedes Jahr die Thematik sowie das Setting und viele Darsteller gewechselt werden, kehren einige Schauspieler mehrmals in unterschiedlichen Rollen zur Serie zurück.

AH S08E07 German HD.mkv (695.6 MB)



General
Unique ID : 312351741480053229448726078737718819698 (0xEAFCC1D880435F9B1F36EDCF81D1BB72)
Complete name : ./Amerikanische Horrorgeschichte S08E07 GermanDL HD/AH S08E07 German HD.mkv
Format : Matroska
Format version : Version 2
File size : 696 MiB
Duration : 42 min 22 s
Overall bit rate : 2 295 kb/s
Movie name : American.Horror.Story.S08E07.Verraeter.GERMAN.DUBBED.DL.720p.WebHD.x264-TVP
Encoded date : UTC 2018-12-27 21:35:49
Writing application : mkvmerge v5.6.0 ('Kenya Kane') built on May 28 2012 06:47:39
Writing library : libebml v1.2.2 + libmatroska v1.3.0

Video
ID : 1
Format : AVC
Format/Info : Advanced Video Codec
Format profile : High@L3.1
Format settings : CABAC / 5 Ref Frames
Format settings, CABAC : Yes
Format settings, RefFrames : 5 frames
Codec ID : V_MPEG4/ISO/AVC
Duration : 42 min 22 s
Bit rate : 1 482 kb/s
Width : 1 280 pixels
Height : 720 pixels
Display aspect ratio : 16:9
Frame rate mode : Constant
Frame rate : 25.000 FPS
Original frame rate : 23.976 (24000/1001) FPS
Color space : YUV
Chroma subsampling : 4:2:0
Bit depth : 8 bits
Scan type : Progressive
Bits/(Pixel*Frame) : 0.064
Stream size : 449 MiB (65%)
Title : tvp-americanhorror-s08e07-720p
Language : German
Default : Yes
Forced : Yes
Color range : Limited
Color primaries : BT.709
Transfer characteristics : BT.709
Matrix coefficients : BT.709

Audio #1
ID : 2
Format : AC-3
Format/Info : Audio Coding 3
Format settings, Endianness : Big
Codec ID : A_AC3
Duration : 42 min 22 s
Bit rate mode : Constant
Bit rate : 384 kb/s
Channel(s) : 6 channels
Channel positions : Front: L C R, Side: L R, LFE
Sampling rate : 48.0 kHz
Frame rate : 31.250 FPS (1536 SPF)
Bit depth : 16 bits
Compression mode : Lossy
Stream size : 116 MiB (17%)
Language : German
Service kind : Complete Main
Default : Yes
Forced : Yes

Audio #2
ID : 3
Format : AC-3
Format/Info : Audio Coding 3
Format settings, Endianness : Big
Codec ID : A_AC3
Duration : 42 min 22 s
Bit rate mode : Constant
Bit rate : 384 kb/s
Channel(s) : 6 channels
Channel positions : Front: L C R, Side: L R, LFE
Sampling rate : 48.0 kHz
Frame rate : 31.250 FPS (1536 SPF)
Bit depth : 16 bits
Compression mode : Lossy
Stream size : 116 MiB (17%)
Language : English
Service kind : Complete Main
Default : No
Forced : No





American Horror Story S08E07


American Horror Story S08E07


American Horror Story S08E07


American Horror Story S08E07


American Horror Story S08E07

All episodes