Featured TV Shows


American Horror Story S08E01

Posted By: Tavaz
1080p (FullHD) / WEBRip IMDb
American Horror Story S08E01

American Horror Story S08E01
WEBRip | MKV | 1920x1080 | English | H264 @ 7034 kbps | E-AC-3 @ 640 kbps | 44 min 14 s | 2.37 GiB
Subtitles: English
Genre: Drama, Mystery

An anthology horror drama series centering on different characters and locations, including a house with a murderous past, an asylum, a witch coven, a freak show, a hotel, a farmhouse in Roanoke and a cult.

1393e2b2cd964cbb881257d65d7a06ce.mkv (2.4 GB)



General
Unique ID : 208381443524269986453313772254732308983 (0x9CC4CE62B791CA19266697D27CE551F7)
Complete name : ./1393e2b2cd964cbb881257d65d7a06ce.mkv
Format : Matroska
Format version : Version 4 / Version 2
File size : 2.37 GiB
Duration : 44 min 14 s
Overall bit rate : 7 675 kb/s
Encoded date : UTC 2018-09-13 08:09:57
Writing application : mkvmerge v19.0.0 ('Brave Captain') 64-bit
Writing library : libebml v1.3.5 + libmatroska v1.4.8

Video
ID : 1
Format : AVC
Format/Info : Advanced Video Codec
Format profile : High@L4
Format settings : CABAC / 4 Ref Frames
Format settings, CABAC : Yes
Format settings, RefFrames : 4 frames
Codec ID : V_MPEG4/ISO/AVC
Duration : 44 min 13 s
Bit rate : 7 034 kb/s
Width : 1 920 pixels
Height : 1 080 pixels
Display aspect ratio : 16:9
Frame rate mode : Constant
Frame rate : 23.976 (24000/1001) FPS
Color space : YUV
Chroma subsampling : 4:2:0
Bit depth : 8 bits
Scan type : Progressive
Bits/(Pixel*Frame) : 0.141
Stream size : 2.17 GiB (92%)
Default : Yes
Forced : No
Color range : Limited
Color primaries : BT.709
Transfer characteristics : BT.709
Matrix coefficients : BT.709

Audio
ID : 2
Format : E-AC-3
Format/Info : Enhanced Audio Coding 3
Format settings, Endianness : Big
Codec ID : A_EAC3
Duration : 44 min 13 s
Bit rate mode : Constant
Bit rate : 640 kb/s
Channel(s) : 6 channels
Channel positions : Front: L C R, Side: L R, LFE
Sampling rate : 48.0 kHz
Frame rate : 187.500 FPS (256 SPF)
Compression mode : Lossy
Delay relative to video : 6 ms
Stream size : 202 MiB (8%)
Language : English
Service kind : Complete Main
Default : Yes
Forced : No

Text
ID : 3
Format : UTF-8
Codec ID : S_TEXT/UTF8
Codec ID/Info : UTF-8 Plain Text
Duration : 44 min 12 s
Bit rate : 73 b/s
Count of elements : 789
Stream size : 23.7 KiB (0%)
Title : SDH
Language : English
Default : No
Forced : No

Menu
00:00:00.000 : en:FX Promo
00:00:01.990 : en:Studio Logo
00:00:06.990 : en:Just like Hawaii
00:08:14.990 : en:Opening Credits
00:09:20.990 : en:Ancestry web site
00:14:07.990 : en:The Outpost
00:23:15.990 : en:Dinner is served
00:30:54.990 : en:Fake it till you make it
00:36:07.990 : en:Scene 9
00:43:30.990 : en:End Credits





American Horror Story S08E01


American Horror Story S08E01


American Horror Story S08E01


American Horror Story S08E01


American Horror Story S08E01

All episodes