Index
# A B C D E F G H I J K L M N O P Q R S T U V W Y Z
Tags
Language
Tags

Featured TV Shows


American Horror Story S08E02

Posted By: Tavaz
1080p (FullHD) / WEB-DL IMDb
American Horror Story S08E02

American Horror Story S08E02
WEB-DL | MKV | 1920x1080 | English | H264 @ 7459 kbps | E-AC-3 @ 640 kbps | 41 min 19 s | 2.34 GiB
Subtitles: English
Genre: Drama, Mystery


An anthology horror drama series centering on different characters and locations, including a house with a murderous past, an asylum, a witch coven, a freak show, a hotel, a farmhouse in Roanoke, a cult, the apocalypse and a summer camp.

388a223749a6465497775f56fead14cb.mkv (2.3 GB)



General
Unique ID : 314161646454655201472959734825210894752 (0xEC59550CED556798D8496D5F624459A0)
Complete name : ./388a223749a6465497775f56fead14cb.mkv
Format : Matroska
Format version : Version 4 / Version 2
File size : 2.34 GiB
Duration : 41 min 19 s
Overall bit rate : 8 102 kb/s
Encoded date : UTC 2018-09-20 07:16:46
Writing application : mkvmerge v19.0.0 ('Brave Captain') 64-bit
Writing library : libebml v1.3.5 + libmatroska v1.4.8

Video
ID : 1
Format : AVC
Format/Info : Advanced Video Codec
Format profile : High@L4
Format settings : CABAC / 4 Ref Frames
Format settings, CABAC : Yes
Format settings, RefFrames : 4 frames
Codec ID : V_MPEG4/ISO/AVC
Duration : 41 min 19 s
Bit rate : 7 460 kb/s
Width : 1 920 pixels
Height : 1 080 pixels
Display aspect ratio : 16:9
Frame rate mode : Constant
Frame rate : 23.976 (24000/1001) FPS
Color space : YUV
Chroma subsampling : 4:2:0
Bit depth : 8 bits
Scan type : Progressive
Bits/(Pixel*Frame) : 0.150
Stream size : 2.15 GiB (92%)
Default : Yes
Forced : No
Color range : Limited
Color primaries : BT.709
Transfer characteristics : BT.709
Matrix coefficients : BT.709

Audio
ID : 2
Format : E-AC-3
Format/Info : Enhanced Audio Coding 3
Format settings, Endianness : Big
Codec ID : A_EAC3
Duration : 41 min 19 s
Bit rate mode : Constant
Bit rate : 640 kb/s
Channel(s) : 6 channels
Channel positions : Front: L C R, Side: L R, LFE
Sampling rate : 48.0 kHz
Frame rate : 187.500 FPS (256 SPF)
Compression mode : Lossy
Delay relative to video : 7 ms
Stream size : 189 MiB (8%)
Language : English
Service kind : Complete Main
Default : Yes
Forced : No

Text
ID : 3
Format : UTF-8
Codec ID : S_TEXT/UTF8
Codec ID/Info : UTF-8 Plain Text
Duration : 40 min 30 s
Bit rate : 64 b/s
Count of elements : 653
Stream size : 19.1 KiB (0%)
Title : SDH
Language : English
Default : No
Forced : No

Menu
00:00:00.000 : en:FX Promo
00:00:00.983 : en:Soup to nuts, snakes all the way down
00:03:01.983 : en:Opening Credits
00:04:06.983 : en:Langdon introduces himself
00:09:06.983 : en:Gallant's interview
00:14:04.983 : en:Emily comes up with a plan
00:17:04.983 : en:Ms. Venable's interview
00:26:34.983 : en:Gallant's betrayal
00:30:22.983 : en:Gallant confronts his Nana
00:34:16.983 : en:Emily and Timmy break rules
00:34:54.983 : en:Langdon learns something new
00:40:38.983 : en:End Credits





American Horror Story S08E02


American Horror Story S08E02


American Horror Story S08E02


American Horror Story S08E02


American Horror Story S08E02

All episodes