Featured TV Shows


American Horror Story S08E03

Posted By: Tavaz
720p (HD) / WEBRip IMDb
American Horror Story S08E03

American Horror Story S08E03
WEB-DL | MKV | 1280x720 | German / English | H264 @ 1231 kbps | AC-3 @ 384 kbps | 40 min 39 s | 593 MiB
Genre: Drama, Mystery

Die Serienanthologie American Horror Story erzählt von Staffel zu Staffel verschiedene, in sich abgeschlossene Geschichten, die sich mit unterschiedlichen Arten von Horror beschäftigen. Während jedes Jahr die Thematik sowie das Setting und viele Darsteller gewechselt werden, kehren einige Schauspieler mehrmals in unterschiedlichen Rollen zur Serie zurück.

AH S08E03 German HD.mkv (593.2 MB)



General
Unique ID : 293576003814017373708030406168861958100 (0xDCDCAE81EB14E1517E6B8B684EAF5FD4)
Complete name : ./Amerikanische Horrorgeschichte S08E03 GermanDL HD/AH S08E03 German HD.mkv
Format : Matroska
Format version : Version 2
File size : 593 MiB
Duration : 40 min 39 s
Overall bit rate : 2 040 kb/s
Movie name : American.Horror.Story.S08E03.Die.verbotene.Frucht.GERMAN.DUBBED.DL.720p.WebHD.x264-TVP
Encoded date : UTC 2018-11-30 21:16:18
Writing application : mkvmerge v5.6.0 ('Kenya Kane') built on May 28 2012 06:47:39
Writing library : libebml v1.2.2 + libmatroska v1.3.0

Video
ID : 1
Format : AVC
Format/Info : Advanced Video Codec
Format profile : High@L3.1
Format settings : CABAC / 5 Ref Frames
Format settings, CABAC : Yes
Format settings, RefFrames : 5 frames
Codec ID : V_MPEG4/ISO/AVC
Duration : 40 min 39 s
Bit rate : 1 231 kb/s
Width : 1 280 pixels
Height : 720 pixels
Display aspect ratio : 16:9
Frame rate mode : Constant
Frame rate : 25.000 FPS
Original frame rate : 23.976 (24000/1001) FPS
Color space : YUV
Chroma subsampling : 4:2:0
Bit depth : 8 bits
Scan type : Progressive
Bits/(Pixel*Frame) : 0.053
Stream size : 358 MiB (60%)
Title : tvp-americanhorror-s08e03-720p
Language : German
Default : Yes
Forced : Yes
Color range : Limited
Color primaries : BT.709
Transfer characteristics : BT.709
Matrix coefficients : BT.709

Audio #1
ID : 2
Format : AC-3
Format/Info : Audio Coding 3
Format settings, Endianness : Big
Codec ID : A_AC3
Duration : 40 min 39 s
Bit rate mode : Constant
Bit rate : 384 kb/s
Channel(s) : 6 channels
Channel positions : Front: L C R, Side: L R, LFE
Sampling rate : 48.0 kHz
Frame rate : 31.250 FPS (1536 SPF)
Bit depth : 16 bits
Compression mode : Lossy
Stream size : 112 MiB (19%)
Language : German
Service kind : Complete Main
Default : Yes
Forced : Yes

Audio #2
ID : 3
Format : AC-3
Format/Info : Audio Coding 3
Format settings, Endianness : Big
Codec ID : A_AC3
Duration : 40 min 39 s
Bit rate mode : Constant
Bit rate : 384 kb/s
Channel(s) : 6 channels
Channel positions : Front: L C R, Side: L R, LFE
Sampling rate : 48.0 kHz
Frame rate : 31.250 FPS (1536 SPF)
Bit depth : 16 bits
Compression mode : Lossy
Stream size : 112 MiB (19%)
Language : English
Service kind : Complete Main
Default : No
Forced : No





American Horror Story S08E03


American Horror Story S08E03


American Horror Story S08E03


American Horror Story S08E03


American Horror Story S08E03

All episodes