Featured TV Shows


American Horror Story S08E03

Posted By: Tavaz
1080p (FullHD) / WEB-DL IMDb
American Horror Story S08E03

American Horror Story S08E03
WEB-DL | MKV | 1920x1080 | English | H264 @ 4714 kbps | E-AC-3 @ 640 kbps | 42 min 23 s | 1.59 GiB
Subtitles: English
Genre: Drama, Mystery

An anthology horror drama series centering on different characters and locations, including a house with a murderous past, an asylum, a witch coven, a freak show, a hotel, a farmhouse in Roanoke and a cult.

e646d5f8123a4dcbbb7bd626d95f2b98.mkv (1.6 GB)



General
Unique ID : 315175169775172998007766533110752009139 (0xED1C879BB664181E8894A24DCA6EDBB3)
Complete name : ./e646d5f8123a4dcbbb7bd626d95f2b98.mkv
Format : Matroska
Format version : Version 4 / Version 2
File size : 1.59 GiB
Duration : 42 min 23 s
Overall bit rate : 5 356 kb/s
Encoded date : UTC 2018-09-27 07:42:58
Writing application : mkvmerge v19.0.0 ('Brave Captain') 64-bit
Writing library : libebml v1.3.5 + libmatroska v1.4.8

Video
ID : 1
Format : AVC
Format/Info : Advanced Video Codec
Format profile : High@L4
Format settings : CABAC / 4 Ref Frames
Format settings, CABAC : Yes
Format settings, RefFrames : 4 frames
Codec ID : V_MPEG4/ISO/AVC
Duration : 42 min 23 s
Bit rate : 4 714 kb/s
Width : 1 920 pixels
Height : 1 080 pixels
Display aspect ratio : 16:9
Frame rate mode : Constant
Frame rate : 23.976 (24000/1001) FPS
Color space : YUV
Chroma subsampling : 4:2:0
Bit depth : 8 bits
Scan type : Progressive
Bits/(Pixel*Frame) : 0.095
Stream size : 1.40 GiB (88%)
Default : Yes
Forced : No
Color range : Limited
Color primaries : BT.709
Transfer characteristics : BT.709
Matrix coefficients : BT.709

Audio
ID : 2
Format : E-AC-3
Format/Info : Enhanced Audio Coding 3
Format settings, Endianness : Big
Codec ID : A_EAC3
Duration : 42 min 23 s
Bit rate mode : Constant
Bit rate : 640 kb/s
Channel(s) : 6 channels
Channel positions : Front: L C R, Side: L R, LFE
Sampling rate : 48.0 kHz
Frame rate : 187.500 FPS (256 SPF)
Compression mode : Lossy
Delay relative to video : 7 ms
Stream size : 194 MiB (12%)
Language : English
Service kind : Complete Main
Default : Yes
Forced : No

Text
ID : 3
Format : UTF-8
Codec ID : S_TEXT/UTF8
Codec ID/Info : UTF-8 Plain Text
Duration : 42 min 17 s
Bit rate : 63 b/s
Count of elements : 653
Stream size : 19.6 KiB (0%)
Title : SDH
Language : English
Default : No
Forced : No

Menu
00:00:00.000 : en:Langdon the savior
00:05:01.983 : en:Opening Credits
00:06:06.983 : en:Ave Satanas
00:07:45.983 : en:A programmed response
00:13:12.983 : en:Red Delicious
00:20:46.983 : en:Party Announcement
00:25:01.983 : en:Happy Halloween
00:30:59.983 : en:Forbidden Fruit
00:34:30.983 : en:Rise
00:41:42.983 : en:End Credits





American Horror Story S08E03


American Horror Story S08E03


American Horror Story S08E03


American Horror Story S08E03


American Horror Story S08E03

All episodes