Featured TV Shows


American Horror Story S08E04

Posted By: Tavaz
1080p (FullHD) / WEBRip IMDb
American Horror Story  S08E04

American Horror Story S08E04
WEBRip | MKV | 1920x1080 | English | H264 @ 7996 kbps | E-AC-3 @ 640 kbps | 41 min 43 s | 2.52 GiB
Subtitles: English
Genre: Dramma, Mistero

American Horror Story è una serie televisiva statunitense di genere horror trasmessa dal 5 ottobre 2011 sulla rete via cavo FX.

Richiamando caratteristiche delle serie antologiche, la fiction venne concepita in modo che ogni stagione avesse trama, ambientazione e personaggi diversi. Al suo debutto, la serie raccolse un'accoglienza mediamente positiva dalla critica e un ottimo riscontro di pubblico; la première risultò la più vista di sempre sulla rete FX. In Italia il primo episodio è stato distribuito dal 31 ottobre 2011 sul sito internet di Fox, canale televisivo della piattaforma pay satellitare Sky, che trasmette la serie dall'8 novembre 2011

American.Horror.Story.S08E04.Could.It.Be.Satan.1080p.AMZN.WEB-DL.DDP5.1.H.264-NTb.mkv (2.5 GB)



General
Unique ID : 336956975261021204324346212020298146661 (0xFD7F8D88662AE97F461C1E2545E76365)
Complete name : ./American.Horror.Story.S08E04.Could.It.Be.Satan.1080p.AMZN.WEB-DL.DDP5.1.H.264-NTb.mkv
Format : Matroska
Format version : Version 4 / Version 2
File size : 2.52 GiB
Duration : 41 min 43 s
Overall bit rate : 8 636 kb/s
Encoded date : UTC 2018-10-04 07:30:30
Writing application : mkvmerge v19.0.0 ('Brave Captain') 64-bit
Writing library : libebml v1.3.5 + libmatroska v1.4.8

Video
ID : 1
Format : AVC
Format/Info : Advanced Video Codec
Format profile : High@L4
Format settings : CABAC / 4 Ref Frames
Format settings, CABAC : Yes
Format settings, RefFrames : 4 frames
Codec ID : V_MPEG4/ISO/AVC
Duration : 41 min 42 s
Bit rate : 7 997 kb/s
Width : 1 920 pixels
Height : 1 080 pixels
Display aspect ratio : 16:9
Frame rate mode : Constant
Frame rate : 23.976 (24000/1001) FPS
Color space : YUV
Chroma subsampling : 4:2:0
Bit depth : 8 bits
Scan type : Progressive
Bits/(Pixel*Frame) : 0.161
Stream size : 2.33 GiB (93%)
Default : Yes
Forced : No
Color range : Limited
Color primaries : BT.709
Transfer characteristics : BT.709
Matrix coefficients : BT.709

Audio
ID : 2
Format : E-AC-3
Format/Info : Enhanced Audio Coding 3
Format settings, Endianness : Big
Codec ID : A_EAC3
Duration : 41 min 42 s
Bit rate mode : Constant
Bit rate : 640 kb/s
Channel(s) : 6 channels
Channel positions : Front: L C R, Side: L R, LFE
Sampling rate : 48.0 kHz
Frame rate : 187.500 FPS (256 SPF)
Compression mode : Lossy
Delay relative to video : 28 ms
Stream size : 191 MiB (7%)
Language : English
Service kind : Complete Main
Default : Yes
Forced : No

Text
ID : 3
Format : UTF-8
Codec ID : S_TEXT/UTF8
Codec ID/Info : UTF-8 Plain Text
Duration : 41 min 40 s
Bit rate : 68 b/s
Count of elements : 685
Stream size : 20.8 KiB (0%)
Title : SDH
Language : English
Default : No
Forced : No





American Horror Story  S08E04


American Horror Story  S08E04


American Horror Story  S08E04


American Horror Story  S08E04


American Horror Story  S08E04

All episodes