Index
# A B C D E F G H I J K L M N O P Q R S T U V W Y Z
Tags
Language
Tags

Featured TV Shows


American Horror Story S08E05

Posted By: Tavaz
1080p (FullHD) / WEBRip IMDb
American Horror Story S08E05

American Horror Story S08E05
WEBRip | MKV | 1920x1080 | English | H264 @ 7888 kbps | E-AC-3 @ 640 kbps | 39 min 39 s | 2.36 GiB
Subtitles: English
Genre: Drama, Mystery

An anthology horror drama series centering on different characters and locations, including a house with a murderous past, an asylum, a witch coven, a freak show, a hotel, a farmhouse in Roanoke and a cult.

5f8ac83d04bf43c598f328a6933b07bd.mkv (2.4 GB)



General
Unique ID : 31474455050820669944665016133601168590 (0x17ADC271A4C693DB1506950F3A138CCE)
Complete name : ./5f8ac83d04bf43c598f328a6933b07bd.mkv
Format : Matroska
Format version : Version 4 / Version 2
File size : 2.36 GiB
Duration : 39 min 39 s
Overall bit rate : 8 530 kb/s
Encoded date : UTC 2018-10-11 17:47:47
Writing application : mkvmerge v27.0.0 ('Metropolis') 64-bit
Writing library : libebml v1.3.6 + libmatroska v1.4.9

Video
ID : 1
Format : AVC
Format/Info : Advanced Video Codec
Format profile : High@L4
Format settings : CABAC / 4 Ref Frames
Format settings, CABAC : Yes
Format settings, RefFrames : 4 frames
Codec ID : V_MPEG4/ISO/AVC
Duration : 39 min 39 s
Bit rate : 7 888 kb/s
Width : 1 920 pixels
Height : 1 080 pixels
Display aspect ratio : 16:9
Frame rate mode : Constant
Frame rate : 23.976 (24000/1001) FPS
Color space : YUV
Chroma subsampling : 4:2:0
Bit depth : 8 bits
Scan type : Progressive
Bits/(Pixel*Frame) : 0.159
Stream size : 2.18 GiB (92%)
Default : Yes
Forced : No
Color range : Limited
Color primaries : BT.709
Transfer characteristics : BT.709
Matrix coefficients : BT.709

Audio
ID : 2
Format : E-AC-3
Format/Info : Enhanced Audio Coding 3
Format settings, Endianness : Big
Codec ID : A_EAC3
Duration : 39 min 39 s
Bit rate mode : Constant
Bit rate : 640 kb/s
Channel(s) : 6 channels
Channel positions : Front: L C R, Side: L R, LFE
Sampling rate : 48.0 kHz
Frame rate : 187.500 FPS (256 SPF)
Compression mode : Lossy
Delay relative to video : 16 ms
Stream size : 182 MiB (8%)
Title : English
Language : English
Service kind : Complete Main
Default : Yes
Forced : No

Text
ID : 3
Format : UTF-8
Codec ID : S_TEXT/UTF8
Codec ID/Info : UTF-8 Plain Text
Duration : 38 min 50 s
Bit rate : 59 b/s
Count of elements : 635
Stream size : 16.9 KiB (0%)
Title : English (SDH)
Language : English
Default : No
Forced : No





American Horror Story S08E05


American Horror Story S08E05


American Horror Story S08E05


American Horror Story S08E05


American Horror Story S08E05

All episodes