Index
# A B C D E F G H I J K L M N O P Q R S T U V W Y Z
Tags
Language
Tags

Featured TV Shows


American Horror Story S08E06

Posted By: Tavaz
1080p (FullHD) / WEB-DL IMDb
American Horror Story S08E06

American Horror Story S08E06
WEB-DL | MKV | 1920x1080 | English | H264 @ 5217 kbps | E-AC-3 @ 640 kbps | 55 min 20 s | 2.27 GiB
Subtitles: English
Genre: Drama, Mystery

An anthology horror drama series centering on different characters and locations, including a house with a murderous past, an asylum, a witch coven, a freak show, a hotel, a farmhouse in Roanoke and a cult.

efcdb6b3422c4d9aaac8eacd5adc5998.mkv (2.3 GB)



General
Unique ID : 227756239011522325939179902006380436113 (0xAB58418E0594D0E022A346A88F9B9A91)
Complete name : ./efcdb6b3422c4d9aaac8eacd5adc5998.mkv
Format : Matroska
Format version : Version 4 / Version 2
File size : 2.27 GiB
Duration : 55 min 20 s
Overall bit rate : 5 860 kb/s
Encoded date : UTC 2018-10-18 07:33:40
Writing application : mkvmerge v19.0.0 ('Brave Captain') 64-bit
Writing library : libebml v1.3.5 + libmatroska v1.4.8

Video
ID : 1
Format : AVC
Format/Info : Advanced Video Codec
Format profile : High@L4
Format settings : CABAC / 4 Ref Frames
Format settings, CABAC : Yes
Format settings, RefFrames : 4 frames
Codec ID : V_MPEG4/ISO/AVC
Duration : 55 min 20 s
Bit rate : 5 218 kb/s
Width : 1 920 pixels
Height : 1 080 pixels
Display aspect ratio : 16:9
Frame rate mode : Constant
Frame rate : 23.976 (24000/1001) FPS
Color space : YUV
Chroma subsampling : 4:2:0
Bit depth : 8 bits
Scan type : Progressive
Bits/(Pixel*Frame) : 0.105
Stream size : 2.02 GiB (89%)
Default : Yes
Forced : No
Color range : Limited
Color primaries : BT.709
Transfer characteristics : BT.709
Matrix coefficients : BT.709

Audio
ID : 2
Format : E-AC-3
Format/Info : Enhanced Audio Coding 3
Format settings, Endianness : Big
Codec ID : A_EAC3
Duration : 55 min 20 s
Bit rate mode : Constant
Bit rate : 640 kb/s
Channel(s) : 6 channels
Channel positions : Front: L C R, Side: L R, LFE
Sampling rate : 48.0 kHz
Frame rate : 187.500 FPS (256 SPF)
Compression mode : Lossy
Delay relative to video : 2 ms
Stream size : 253 MiB (11%)
Language : English
Service kind : Complete Main
Default : Yes
Forced : No

Text
ID : 3
Format : UTF-8
Codec ID : S_TEXT/UTF8
Codec ID/Info : UTF-8 Plain Text
Duration : 55 min 19 s
Bit rate : 57 b/s
Count of elements : 813
Stream size : 23.2 KiB (0%)
Title : SDH
Language : English
Default : No
Forced : No





American Horror Story S08E06


American Horror Story S08E06


American Horror Story S08E06


American Horror Story S08E06


American Horror Story S08E06

All episodes