Index
# A B C D E F G H I J K L M N O P Q R S T U V W Y Z
Tags
Language
Tags

Featured TV Shows


American Horror Story S08E07

Posted By: Tavaz
1080p (FullHD) / WEBRip IMDb
American Horror Story S08E07

American Horror Story S08E07
WEBRip | MKV | 1920x1080 | English | H264 @ 4561 kbps | E-AC-3 @ 640 kbps | 44 min 10 s | 1.61 GiB
Subtitles: English
Genre: Drama, Mystery

An anthology horror drama series centering on different characters and locations, including a house with a murderous past, an asylum, a witch coven, a freak show, a hotel, a farmhouse in Roanoke and a cult.

a3bdfa4af4d0481a8c99e82d62a4c4e6.mkv (1.6 GB)



General
Unique ID : 158112819856189122651774636709267063802 (0x76F36BE32E49091CC580B6E4BE6343FA)
Complete name : ./a3bdfa4af4d0481a8c99e82d62a4c4e6.mkv
Format : Matroska
Format version : Version 4 / Version 2
File size : 1.61 GiB
Duration : 44 min 10 s
Overall bit rate : 5 203 kb/s
Encoded date : UTC 2018-10-25 12:03:42
Writing application : mkvmerge v28.1.0 ('Morning Child') 64-bit
Writing library : libebml v1.3.6 + libmatroska v1.4.9

Video
ID : 1
Format : AVC
Format/Info : Advanced Video Codec
Format profile : High@L4
Format settings : CABAC / 4 Ref Frames
Format settings, CABAC : Yes
Format settings, RefFrames : 4 frames
Codec ID : V_MPEG4/ISO/AVC
Duration : 44 min 10 s
Bit rate : 4 561 kb/s
Width : 1 920 pixels
Height : 1 080 pixels
Display aspect ratio : 16:9
Frame rate mode : Constant
Frame rate : 23.976 (24000/1001) FPS
Color space : YUV
Chroma subsampling : 4:2:0
Bit depth : 8 bits
Scan type : Progressive
Bits/(Pixel*Frame) : 0.092
Stream size : 1.41 GiB (88%)
Default : Yes
Forced : No
Color range : Limited
Color primaries : BT.709
Transfer characteristics : BT.709
Matrix coefficients : BT.709

Audio
ID : 2
Format : E-AC-3
Format/Info : Enhanced Audio Coding 3
Format settings, Endianness : Big
Codec ID : A_EAC3
Duration : 44 min 10 s
Bit rate mode : Constant
Bit rate : 640 kb/s
Channel(s) : 6 channels
Channel positions : Front: L C R, Side: L R, LFE
Sampling rate : 48.0 kHz
Frame rate : 187.500 FPS (256 SPF)
Compression mode : Lossy
Delay relative to video : 24 ms
Stream size : 202 MiB (12%)
Title : English
Language : English
Service kind : Complete Main
Default : Yes
Forced : No

Text
ID : 3
Format : UTF-8
Codec ID : S_TEXT/UTF8
Codec ID/Info : UTF-8 Plain Text
Duration : 43 min 20 s
Bit rate : 61 b/s
Count of elements : 713
Stream size : 19.4 KiB (0%)
Title : English (SDH)
Language : English
Default : No
Forced : No





American Horror Story S08E07


American Horror Story S08E07


American Horror Story S08E07


American Horror Story S08E07


American Horror Story S08E07

All episodes