Featured TV Shows


American Horror Story S08E08

Posted By: Tavaz
1080p (FullHD) / WEBRip IMDb
American Horror Story S08E08

American Horror Story S08E08
WEBRip | MKV | 1920x1080 | English | H264 @ 5294 kbps | E-AC-3 @ 640 kbps | 37 min 39 s | 1.56 GiB
Subtitles: English
Genre: Drama, Mystery

An anthology horror drama series centering on different characters and locations, including a house with a murderous past, an asylum, a witch coven, a freak show, a hotel, a farmhouse in Roanoke and a cult.

bef705b2c90c490f8ecd9c168e1f18e9.mkv (1.6 GB)



General
Unique ID : 12943516043381104293059453536315011971 (0x9BCD49C8609EC487338CF50BC267383)
Complete name : ./bef705b2c90c490f8ecd9c168e1f18e9.mkv
Format : Matroska
Format version : Version 4 / Version 2
File size : 1.56 GiB
Duration : 37 min 39 s
Overall bit rate : 5 937 kb/s
Encoded date : UTC 2018-11-01 22:16:36
Writing application : mkvmerge v19.0.0 ('Brave Captain') 64-bit
Writing library : libebml v1.3.5 + libmatroska v1.4.8

Video
ID : 1
Format : AVC
Format/Info : Advanced Video Codec
Format profile : High@L4
Format settings : CABAC / 4 Ref Frames
Format settings, CABAC : Yes
Format settings, RefFrames : 4 frames
Codec ID : V_MPEG4/ISO/AVC
Duration : 37 min 39 s
Bit rate : 5 295 kb/s
Width : 1 920 pixels
Height : 1 080 pixels
Display aspect ratio : 16:9
Frame rate mode : Constant
Frame rate : 23.976 (24000/1001) FPS
Color space : YUV
Chroma subsampling : 4:2:0
Bit depth : 8 bits
Scan type : Progressive
Bits/(Pixel*Frame) : 0.107
Stream size : 1.39 GiB (89%)
Default : Yes
Forced : No
Color range : Limited
Color primaries : BT.709
Transfer characteristics : BT.709
Matrix coefficients : BT.709

Audio
ID : 2
Format : E-AC-3
Format/Info : Enhanced Audio Coding 3
Format settings, Endianness : Big
Codec ID : A_EAC3
Duration : 37 min 39 s
Bit rate mode : Constant
Bit rate : 640 kb/s
Channel(s) : 6 channels
Channel positions : Front: L C R, Side: L R, LFE
Sampling rate : 48.0 kHz
Frame rate : 187.500 FPS (256 SPF)
Compression mode : Lossy
Delay relative to video : 24 ms
Stream size : 172 MiB (11%)
Language : English
Service kind : Complete Main
Default : Yes
Forced : No

Text
ID : 3
Format : UTF-8
Codec ID : S_TEXT/UTF8
Codec ID/Info : UTF-8 Plain Text
Duration : 36 min 41 s
Bit rate : 65 b/s
Count of elements : 616
Stream size : 17.5 KiB (0%)
Title : SDH
Language : English
Default : No
Forced : No





American Horror Story S08E08


American Horror Story S08E08


American Horror Story S08E08


American Horror Story S08E08


American Horror Story S08E08

All episodes