Featured TV Shows


American Horror Story S08E10

Posted By: Tavaz
1080p (FullHD) / WEBRip IMDb
American Horror Story S08E10

American Horror Story S08E10
WEBRip | MKV | 1920x1080 | English | H264 @ 5939 kbps | E-AC-3 @ 640 kbps | 45 min 45 s | 2.15 GiB
Subtitles: English
Genre: Drama, Mystery

An anthology horror drama series centering on different characters and locations, including a house with a murderous past, an asylum, a witch coven, a freak show, a hotel, a farmhouse in Roanoke and a cult.

04a90910afba43e1b3df17656ec72dde.mkv (2.1 GB)



General
Unique ID : 232081804633518271942700525138251049073 (0xAE995467D0FDBD9E3308E937E1076871)
Complete name : ./04a90910afba43e1b3df17656ec72dde.mkv
Format : Matroska
Format version : Version 4 / Version 2
File size : 2.15 GiB
Duration : 45 min 45 s
Overall bit rate : 6 713 kb/s
Writing application : Lavf58.17.103
Writing library : Lavf58.17.103
ErrorDetectionType : Per level 1

Video
ID : 1
Format : AVC
Format/Info : Advanced Video Codec
Format profile : High@L4
Format settings : CABAC / 4 Ref Frames
Format settings, CABAC : Yes
Format settings, RefFrames : 4 frames
Codec ID : V_MPEG4/ISO/AVC
Duration : 45 min 45 s
Bit rate : 5 940 kb/s
Width : 1 920 pixels
Height : 1 080 pixels
Display aspect ratio : 16:9
Frame rate mode : Constant
Frame rate : 23.976 (24000/1001) FPS
Color space : YUV
Chroma subsampling : 4:2:0
Bit depth : 8 bits
Scan type : Progressive
Bits/(Pixel*Frame) : 0.119
Stream size : 1.90 GiB (88%)
Default : Yes
Forced : No
Color range : Limited
Color primaries : BT.709
Transfer characteristics : BT.709
Matrix coefficients : BT.709
Statistics Tags Issue : mkvmerge v26.0.0 ('In The Game') 64-bit 2018-11-15 19:27:25 / Lavf58.17.103
FromStats_BitRate : 6088316
FromStats_Duration : 00:45:45.295000000
FromStats_FrameCount : 66504
FromStats_StreamSize : 2110949562

Audio
ID : 2
Format : E-AC-3
Format/Info : Enhanced Audio Coding 3
Format settings, Endianness : Big
Codec ID : A_EAC3
Duration : 45 min 45 s
Bit rate mode : Constant
Bit rate : 640 kb/s
Channel(s) : 6 channels
Channel positions : Front: L C R, Side: L R, LFE
Sampling rate : 48.0 kHz
Frame rate : 187.500 FPS (256 SPF)
Bit depth : 32 bits
Compression mode : Lossy
Delay relative to video : -4 s 7 ms
Stream size : 209 MiB (10%)
Language : English
Service kind : Complete Main
Default : Yes
Forced : No
Statistics Tags Issue : mkvmerge v26.0.0 ('In The Game') 64-bit 2018-11-15 19:27:25 / Lavf58.17.103
FromStats_BitRate : 640000
FromStats_Duration : 00:45:45.000000000
FromStats_FrameCount : 86682
FromStats_StreamSize : 221905920

Text
ID : 3
Format : UTF-8
Codec ID : S_TEXT/UTF8
Codec ID/Info : UTF-8 Plain Text
Title : English SDH
Language : English
Default : No
Forced : No
Statistics Tags Issue : mkvmerge v26.0.0 ('In The Game') 64-bit 2018-11-15 19:27:25 / Lavf58.17.103
FromStats_BitRate : 64
FromStats_Duration : 00:44:58.474000000
FromStats_FrameCount : 765
FromStats_StreamSize : 22405





American Horror Story S08E10


American Horror Story S08E10


American Horror Story S08E10


American Horror Story S08E10


American Horror Story S08E10

All episodes