Index
# A B C D E F G H I J K L M N O P Q R S T U V W Y Z
Tags
Language
Tags

Featured TV Shows


American Horror Story S09E01

Posted By: Tavaz
1080p (FullHD) / WEB-DL IMDb
American Horror Story S09E01

American Horror Story S09E01
WEB-DL | MKV | 1920x1080 | English | H264 @ 9013 kbps | E-AC-3 @ 640 kbps | 48 min 10 s | 3.25 GiB
Subtitles: English
Genre: Drama, Mystery


An anthology horror drama series centering on different characters and locations, including a house with a murderous past, an asylum, a witch coven, a freak show, a hotel, a farmhouse in Roanoke and a cult.

7486fac9d7874f858b322388f82e8be2.mkv (3.2 GB)



General
Unique ID : 300998969010145205588036138776625821784 (0xE2724AF29F79B491006B207FE0363858)
Complete name : ./7486fac9d7874f858b322388f82e8be2.mkv
Format : Matroska
Format version : Version 4 / Version 2
File size : 3.25 GiB
Duration : 48 min 10 s
Overall bit rate : 9 656 kb/s
Encoded date : UTC 2019-09-19 21:50:56
Writing application : mkvmerge v37.0.0 ('Leave It') 64-bit
Writing library : libebml v1.3.9 + libmatroska v1.5.2

Video
ID : 1
Format : AVC
Format/Info : Advanced Video Codec
Format profile : High@L4
Format settings : CABAC / 4 Ref Frames
Format settings, CABAC : Yes
Format settings, RefFrames : 4 frames
Codec ID : V_MPEG4/ISO/AVC
Duration : 48 min 10 s
Bit rate mode : Constant
Bit rate : 9 014 kb/s
Nominal bit rate : 10 000 kb/s
Width : 1 920 pixels
Height : 1 080 pixels
Display aspect ratio : 16:9
Frame rate mode : Constant
Frame rate : 23.976 (24000/1001) FPS
Color space : YUV
Chroma subsampling : 4:2:0
Bit depth : 8 bits
Scan type : Progressive
Bits/(Pixel*Frame) : 0.181
Stream size : 3.03 GiB (93%)
Language : English
Default : Yes
Forced : No
Color range : Limited
Color primaries : BT.709
Transfer characteristics : BT.709
Matrix coefficients : BT.709

Audio
ID : 2
Format : E-AC-3
Format/Info : Enhanced Audio Coding 3
Format settings, Endianness : Big
Codec ID : A_EAC3
Duration : 48 min 10 s
Bit rate mode : Constant
Bit rate : 640 kb/s
Channel(s) : 6 channels
Channel positions : Front: L C R, Side: L R, LFE
Sampling rate : 48.0 kHz
Frame rate : 187.500 FPS (256 SPF)
Compression mode : Lossy
Delay relative to video : 30 ms
Stream size : 221 MiB (7%)
Language : English
Service kind : Complete Main
Default : Yes
Forced : No

Text #1
ID : 3
Format : UTF-8
Codec ID : S_TEXT/UTF8
Codec ID/Info : UTF-8 Plain Text
Duration : 47 min 35 s
Bit rate : 60 b/s
Count of elements : 733
Stream size : 21.0 KiB (0%)
Language : English
Default : No
Forced : No

Text #2
ID : 4
Format : UTF-8
Codec ID : S_TEXT/UTF8
Codec ID/Info : UTF-8 Plain Text
Duration : 47 min 35 s
Bit rate : 67 b/s
Count of elements : 851
Stream size : 23.4 KiB (0%)
Title : SDH
Language : English
Default : No
Forced : No





American Horror Story S09E01


American Horror Story S09E01


American Horror Story S09E01


American Horror Story S09E01


American Horror Story S09E01

All episodes