Index
# A B C D E F G H I J K L M N O P Q R S T U V W Y Z
Tags
Language
Tags

Featured TV Shows


American Horror Story S09E02

Posted By: Tavaz
1080p (FullHD) / WEB-DL IMDb
American Horror Story S09E02

American Horror Story S09E02
WEB-DL | MKV | 1920x1080 | English | H264 @ 6781 kbps | E-AC-3 @ 640 kbps | 39 min 38 s | 2.06 GiB
Subtitles: English
Genre: Drama, Mystery


An anthology horror drama series centering on different characters and locations, including a house with a murderous past, an asylum, a witch coven, a freak show, a hotel, a farmhouse in Roanoke and a cult.

eb3d900c8a36438dae66321b125b7bae.mkv (2.1 GB)



General
Unique ID : 176171205306436160863173707262567620108 (0x84895707DEDF10296533A1E8F25B9E0C)
Complete name : ./eb3d900c8a36438dae66321b125b7bae.mkv
Format : Matroska
Format version : Version 4 / Version 2
File size : 2.06 GiB
Duration : 39 min 38 s
Overall bit rate : 7 424 kb/s
Encoded date : UTC 2019-09-26 11:53:10
Writing application : mkvmerge v37.0.0 ('Leave It') 64-bit
Writing library : libebml v1.3.9 + libmatroska v1.5.2

Video
ID : 1
Format : AVC
Format/Info : Advanced Video Codec
Format profile : High@L4
Format settings : CABAC / 4 Ref Frames
Format settings, CABAC : Yes
Format settings, RefFrames : 4 frames
Codec ID : V_MPEG4/ISO/AVC
Duration : 39 min 38 s
Bit rate mode : Constant
Bit rate : 6 781 kb/s
Nominal bit rate : 10 000 kb/s
Width : 1 920 pixels
Height : 1 080 pixels
Display aspect ratio : 16:9
Frame rate mode : Constant
Frame rate : 23.976 (24000/1001) FPS
Color space : YUV
Chroma subsampling : 4:2:0
Bit depth : 8 bits
Scan type : Progressive
Bits/(Pixel*Frame) : 0.136
Stream size : 1.88 GiB (91%)
Language : English
Default : Yes
Forced : No
Color range : Limited
Color primaries : BT.709
Transfer characteristics : BT.709
Matrix coefficients : BT.709

Audio
ID : 2
Format : E-AC-3
Format/Info : Enhanced Audio Coding 3
Format settings, Endianness : Big
Codec ID : A_EAC3
Duration : 39 min 38 s
Bit rate mode : Constant
Bit rate : 640 kb/s
Channel(s) : 6 channels
Channel positions : Front: L C R, Side: L R, LFE
Sampling rate : 48.0 kHz
Frame rate : 187.500 FPS (256 SPF)
Compression mode : Lossy
Delay relative to video : 30 ms
Stream size : 181 MiB (9%)
Language : English
Service kind : Complete Main
Default : Yes
Forced : No

Text #1
ID : 3
Format : UTF-8
Codec ID : S_TEXT/UTF8
Codec ID/Info : UTF-8 Plain Text
Duration : 37 min 56 s
Bit rate : 69 b/s
Count of elements : 717
Stream size : 19.2 KiB (0%)
Language : English
Default : No
Forced : No

Text #2
ID : 4
Format : UTF-8
Codec ID : S_TEXT/UTF8
Codec ID/Info : UTF-8 Plain Text
Duration : 38 min 48 s
Bit rate : 67 b/s
Count of elements : 732
Stream size : 19.2 KiB (0%)
Title : SDH
Language : English
Default : No
Forced : No

Menu
00:00:00.000 : en:Scene 3
00:05:01.982 : en:Opening Credits
00:06:11.982 : en:Scene 5
00:09:47.982 : en:Scene 6
00:17:11.982 : en:Scene 7
00:18:52.982 : en:Scene 8
00:25:30.982 : en:Scene 9
00:31:49.982 : en:Scene 10
00:38:54.982 : en:End Credits
00:39:37.982 : en:Commercial





American Horror Story S09E02


American Horror Story S09E02


American Horror Story S09E02


American Horror Story S09E02


American Horror Story S09E02

All episodes