America's Next Top Model S24E02

Posted By: Tavaz
720p (HD) / HDTV IMDb
America's Next Top Model S24E02

America's Next Top Model S24E02
HDTV | MKV | 1280x720 | English | H264 @ 2153 kbps | AC-3 @ 384 kbps | 41 min 20 s | 751 MiB

Aspiring models compete for a chance to break into the business with a panel of judges critiquing their progress throughout the competition.

d8fe56bb42ed45bf9af9f8c47c9e2970.mkv (750.9 MB)



General
Unique ID : 181886732700564634155068579759911851399 (0x88D61C49B199DD1B873596896A1FD587)
Complete name : ./d8fe56bb42ed45bf9af9f8c47c9e2970.mkv
Format : Matroska
Format version : Version 4 / Version 2
File size : 751 MiB
Duration : 41 min 20 s
Overall bit rate : 2 539 kb/s
Encoded date : UTC 2018-01-17 07:26:32
Writing application : mkvmerge v9.0.1 ('Obstacles') 64bit
Writing library : libebml v1.3.3 + libmatroska v1.4.4

Video
ID : 2
Format : AVC
Format/Info : Advanced Video Codec
Format profile : High@L3.1
Format settings : CABAC / 5 Ref Frames
Format settings, CABAC : Yes
Format settings, RefFrames : 5 frames
Codec ID : V_MPEG4/ISO/AVC
Duration : 41 min 20 s
Bit rate : 2 153 kb/s
Width : 1 280 pixels
Height : 720 pixels
Display aspect ratio : 16:9
Frame rate mode : Constant
Frame rate : 23.976 (24000/1001) FPS
Color space : YUV
Chroma subsampling : 4:2:0
Bit depth : 8 bits
Scan type : Progressive
Bits/(Pixel*Frame) : 0.097
Stream size : 637 MiB (85%)
Writing library : x264 core 155 r2893 b00bcaf
Encoding settings : cabac=1 / ref=5 / deblock=1:0:0 / analyse=0x3:0x113 / me=umh / subme=8 / psy=1 / psy_rd=1.00:0.15 / mixed_ref=1 / me_range=16 / chroma_me=1 / trellis=2 / 8x8dct=1 / cqm=0 / deadzone=21,11 / fast_pskip=1 / chroma_qp_offset=-3 / threads=12 / lookahead_threads=2 / sliced_threads=0 / nr=0 / decimate=1 / interlaced=0 / bluray_compat=0 / constrained_intra=0 / bframes=3 / b_pyramid=2 / b_adapt=1 / b_bias=0 / direct=3 / weightb=1 / open_gop=0 / weightp=2 / keyint=240 / keyint_min=23 / scenecut=40 / intra_refresh=0 / rc_lookahead=50 / rc=crf / mbtree=1 / crf=21.0 / qcomp=0.60 / qpmin=0 / qpmax=69 / qpstep=4 / vbv_maxrate=17500 / vbv_bufsize=17500 / crf_max=0.0 / nal_hrd=none / filler=0 / ip_ratio=1.40 / aq=1:1.00
Language : English
Default : Yes
Forced : No
Color range : Limited
Matrix coefficients : BT.709

Audio
ID : 1
Format : AC-3
Format/Info : Audio Coding 3
Format settings, Endianness : Big
Codec ID : A_AC3
Duration : 41 min 20 s
Bit rate mode : Constant
Bit rate : 384 kb/s
Channel(s) : 2 channels
Channel positions : Front: L R
Sampling rate : 48.0 kHz
Frame rate : 31.250 FPS (1536 SPF)
Bit depth : 16 bits
Compression mode : Lossy
Delay relative to video : 1 ms
Stream size : 114 MiB (15%)
Service kind : Complete Main
Default : Yes
Forced : No





America's Next Top Model S24E02


America's Next Top Model S24E02


America's Next Top Model S24E02


America's Next Top Model S24E02


America's Next Top Model S24E02

All episodes