Featured TV Shows


Amphibia S02E07

Posted By: Tavaz
720p (HD) / WEB-DL IMDb
Amphibia S02E07

Amphibia S02E07
WEB-DL | MKV | 1280x720 | English | H264 @ 1699 kbps | AAC @ 63 kbps | 11 min 54 s | 150 MiB
Subtitles: English
Genre: Animation, Comedy, Family


The adventures of 13-year-old, self-centered Anne Boonchuy who is magically transported to the fictitious world of Amphibia, a rural marshland full of frog-people. With the help of an excitable young frog named Sprig, Anne will transform into a hero and discover the first true friendship of her life.

028354c5e85246b4a827e810c3269494.mkv (150.3 MB)



General
Unique ID : 23083561304813519725759204317974519247 (0x115DBB7110F5039763E0373D76645DCF)
Complete name : ./028354c5e85246b4a827e810c3269494.mkv
Format : Matroska
Format version : Version 4 / Version 2
File size : 150 MiB
Duration : 11 min 54 s
Overall bit rate : 1 765 kb/s
Encoded date : UTC 2020-08-01 09:29:21
Writing application : mkvmerge v48.0.0 ('Fortress Around Your Heart') 64-bit
Writing library : libebml v1.4.0 + libmatroska v1.6.0

Video
ID : 1
Format : AVC
Format/Info : Advanced Video Codec
Format profile : High@L3.1
Format settings : CABAC / 5 Ref Frames
Format settings, CABAC : Yes
Format settings, RefFrames : 5 frames
Codec ID : V_MPEG4/ISO/AVC
Duration : 11 min 53 s
Bit rate : 1 699 kb/s
Width : 1 280 pixels
Height : 720 pixels
Display aspect ratio : 16:9
Frame rate mode : Constant
Frame rate : 23.976 (24000/1001) FPS
Color space : YUV
Chroma subsampling : 4:2:0
Bit depth : 8 bits
Scan type : Progressive
Bits/(Pixel*Frame) : 0.077
Stream size : 145 MiB (96%)
Language : English
Default : Yes
Forced : No

Audio
ID : 2
Format : AAC
Format/Info : Advanced Audio Codec
Format profile : HE-AAC / LC
Format settings : Explicit
Codec ID : A_AAC-2
Duration : 11 min 54 s
Bit rate : 64.0 kb/s
Channel(s) : 2 channels
Channel positions : Front: L R
Sampling rate : 48.0 kHz / 24.0 kHz
Frame rate : 23.438 FPS (1024 SPF)
Compression mode : Lossy
Delay relative to video : 200 ms
Stream size : 5.45 MiB (4%)
Language : English
Default : Yes
Forced : No

Text
ID : 3
Format : UTF-8
Codec ID : S_TEXT/UTF8
Codec ID/Info : UTF-8 Plain Text
Duration : 11 min 22 s
Bit rate : 97 b/s
Count of elements : 245
Stream size : 8.14 KiB (0%)
Language : English
Default : No
Forced : No





Amphibia S02E07


Amphibia S02E07


Amphibia S02E07


Amphibia S02E07


Amphibia S02E07

All episodes