Featured TV Shows


Amphibia S02E08

Posted By: Tavaz
1080p (FullHD) / WEB-DL IMDb
Amphibia S02E08

Amphibia S02E08
WEB-DL | MKV | 1920x1080 | English | H264 @ 5113 kbps | AAC @ 63 kbps | 11 min 54 s | 441 MiB
Subtitles: English
Genre: Animation, Comedy, Family


The adventures of 13-year-old, self-centered Anne Boonchuy who is magically transported to the fictitious world of Amphibia, a rural marshland full of frog-people. With the help of an excitable young frog named Sprig, Anne will transform into a hero and discover the first true friendship of her life.

c0aad1df2baf423aa856a4639be4f9b1.mkv (441.1 MB)



General
Unique ID : 179512464050754967551394358017917337867 (0x870CD7CE3B86DA8DC347D22DDCE6410B)
Complete name : ./c0aad1df2baf423aa856a4639be4f9b1.mkv
Format : Matroska
Format version : Version 4 / Version 2
File size : 441 MiB
Duration : 11 min 54 s
Overall bit rate : 5 178 kb/s
Encoded date : UTC 2020-08-01 09:31:57
Writing application : mkvmerge v48.0.0 ('Fortress Around Your Heart') 64-bit
Writing library : libebml v1.4.0 + libmatroska v1.6.0

Video
ID : 1
Format : AVC
Format/Info : Advanced Video Codec
Format profile : High@L4
Format settings : CABAC / 4 Ref Frames
Format settings, CABAC : Yes
Format settings, RefFrames : 4 frames
Codec ID : V_MPEG4/ISO/AVC
Duration : 11 min 54 s
Bit rate : 5 113 kb/s
Width : 1 920 pixels
Height : 1 080 pixels
Display aspect ratio : 16:9
Frame rate mode : Constant
Frame rate : 23.976 (24000/1001) FPS
Color space : YUV
Chroma subsampling : 4:2:0
Bit depth : 8 bits
Scan type : Progressive
Bits/(Pixel*Frame) : 0.103
Stream size : 435 MiB (99%)
Language : English
Default : Yes
Forced : No

Audio
ID : 2
Format : AAC
Format/Info : Advanced Audio Codec
Format profile : HE-AAC / LC
Format settings : Explicit
Codec ID : A_AAC-2
Duration : 11 min 54 s
Bit rate : 64.0 kb/s
Channel(s) : 2 channels
Channel positions : Front: L R
Sampling rate : 48.0 kHz / 24.0 kHz
Frame rate : 23.438 FPS (1024 SPF)
Compression mode : Lossy
Delay relative to video : 167 ms
Stream size : 5.45 MiB (1%)
Language : English
Default : Yes
Forced : No

Text
ID : 3
Format : UTF-8
Codec ID : S_TEXT/UTF8
Codec ID/Info : UTF-8 Plain Text
Duration : 11 min 22 s
Bit rate : 96 b/s
Count of elements : 229
Stream size : 8.04 KiB (0%)
Language : English
Default : No
Forced : No





Amphibia S02E08


Amphibia S02E08


Amphibia S02E08


Amphibia S02E08


Amphibia S02E08

All episodes