Index
# A B C D E F G H I J K L M N O P Q R S T U V W X Y Z
Tags
Language
Tags
May 2024
Su Mo Tu We Th Fr Sa
28 29 30 1 2 3 4
5 6 7 8 9 10 11
12 13 14 15 16 17 18
19 20 21 22 23 24 25
26 27 28 29 30 31 1

Featured TV Shows


Angry Boys S01E09

Posted By: Tavaz
1080p (FullHD) / BDRip IMDb
Angry Boys S01E09

Angry Boys S01E09
BluRay Remux | MKV | 1920x1080 | English | H264 @ 20921 kbps | DTS | 27 min 8 s | 4.64 GiB
Subtitles: Español, Français, English
Genre: Drama, Comedy


Angry Boys is an Australian television mockumentary series written by and starring Chris Lilley. Continuing the mockumentary style of his previous series, the show explores the issues faced by young males in the 21st century – their influences, their pressures, their dreams and ambitions. In Angry Boys, Lilley plays multiple characters: S.mouse, an American rapper; Jen, a manipulative Japanese mother; Blake Oakfield, a champion surfer; Ruth "Gran" Sims, a guard at a juvenile detention facility; and her grandchildren, South Australian twins Daniel and Nathan Sims.

The series is a co-production between the Australian Broadcasting Corporation and US cable channel HBO, with a pre-sale to BBC Three in the United Kingdom. Filmed in Melbourne, Los Angeles and Tokyo, Angry Boys premièred on 11 May 2011 at 9:00 pm on ABC1.

Angry.Boys.S01E09.1080i.BluRay.Remux.AVC.DTS-HD.MA.5.1-HiFi.mkv (4.6 GB)



General
Unique ID : 174748226160183540728571661861976370126 (0x837748BDFDE7A2EE9D1BDA887B9D6BCE)
Complete name : ./Angry.Boys.S01E09.1080i.BluRay.Remux.AVC.DTS-HD.MA.5.1-HiFi.mkv
Format : Matroska
Format version : Version 4 / Version 2
File size : 4.64 GiB
Duration : 27 min 8 s
Overall bit rate mode : Variable
Overall bit rate : 24.4 Mb/s
Movie name : Angry Boys E9
Encoded date : UTC 2016-04-18 07:40:20
Writing application : mkvmerge v8.6.1 ('Flying') 64bit
Writing library : libebml v1.3.3 + libmatroska v1.4.4

Video
ID : 1
Format : AVC
Format/Info : Advanced Video Codec
Format profile : High@L4.1
Format settings : CABAC / 4 Ref Frames
Format settings, CABAC : Yes
Format settings, RefFrames : 4 frames
Codec ID : V_MPEG4/ISO/AVC
Duration : 27 min 8 s
Bit rate mode : Variable
Bit rate : 20.9 Mb/s
Maximum bit rate : 38.0 Mb/s
Width : 1 920 pixels
Height : 1 080 pixels
Display aspect ratio : 16:9
Frame rate mode : Constant
Frame rate : 29.970 (30000/1001) FPS
Color space : YUV
Chroma subsampling : 4:2:0
Bit depth : 8 bits
Scan type : MBAFF
Scan type, store method : Interleaved fields
Scan order : Top Field First
Bits/(Pixel*Frame) : 0.337
Stream size : 3.97 GiB (86%)
Title : MPEG-4 AVC Video / 20996 kbps / 1080i / 29.970 fps / 16:9 / High Profile 4.1
Default : Yes
Forced : No

Audio
ID : 2
Format : DTS
Format/Info : Digital Theater Systems
Format profile : MA / Core
Mode : 16
Format settings, Endianness : Big
Codec ID : A_DTS
Duration : 27 min 8 s
Bit rate mode : Variable / Constant
Bit rate : 3 463 kb/s / 1 509 kb/s
Channel(s) : 6 channels
Channel positions : Front: L C R, Side: L R, LFE
Sampling rate : 48.0 kHz
Frame rate : 93.750 FPS (512 SPF)
Bit depth : 24 bits
Compression mode : Lossless / Lossy
Stream size : 672 MiB (14%)
Title : DTS-HD Master Audio / 5.1 / 48 kHz / 3463 kbps / 24-bit
Language : English
Default : Yes
Forced : No

Text #1
ID : 3
Format : PGS
Muxing mode : zlib
Codec ID : S_HDMV/PGS
Codec ID/Info : Picture based subtitle format used on BDs/HD-DVDs
Duration : 26 min 50 s
Bit rate : 22.6 kb/s
Count of elements : 1151
Stream size : 4.33 MiB (0%)
Language : English
Default : No
Forced : No

Text #2
ID : 4
Format : PGS
Muxing mode : zlib
Codec ID : S_HDMV/PGS
Codec ID/Info : Picture based subtitle format used on BDs/HD-DVDs
Duration : 26 min 50 s
Bit rate : 17.5 kb/s
Count of elements : 1110
Stream size : 3.35 MiB (0%)
Language : French
Default : No
Forced : No

Text #3
ID : 5
Format : PGS
Muxing mode : zlib
Codec ID : S_HDMV/PGS
Codec ID/Info : Picture based subtitle format used on BDs/HD-DVDs
Duration : 26 min 50 s
Bit rate : 18.9 kb/s
Count of elements : 1105
Stream size : 3.63 MiB (0%)
Language : Spanish
Default : No
Forced : No

Menu
00:00:00.000 : en:Chapter 1
00:02:13.767 : en:Chapter 2
00:08:57.737 : en:Chapter 3
00:17:57.677 : en:Chapter 4
00:25:55.020 : en:Chapter 5





Angry Boys S01E09


Angry Boys S01E09


Angry Boys S01E09


Angry Boys S01E09

All episodes