Featured TV Shows


ATLANTA S01E09

Posted By: Tavaz
SD / WEB-DL IMDb
ATLANTA S01E09

ATLANTA S01E09
WEB-DL | MKV | 720x404 | Italian | H264 @ 1728 kbps | AAC @ 111 kbps | 23 min 18 s | 307 MiB
Subtitles: Italian
Genre: Commedia

Una comedy insolita, dark, strana, ambientata nella scena rap di Atlanta. Ce la farà Earl, il protagonista, a diventare il manager di suo cugino Alfred? E, una volta riuscitoci, riuscirà a farlo ragionare e farlo diventare una vera star? Il tutto con un twist di stranezze alla Twin Peaks. Un successo di pubblico e di critica, tanto che FX ha già rinnovato Atlanta per una seconda stagione.

Atlanta.1x09.Jet.Set.ITA.WEBMux.x264-NovaRip.mkv (307.1 MB)



General
Unique ID : 30604679030376988694401542618825216234 (0x17063F2CDCC809E0987AFF80C7D9D0EA)
Complete name : ./Atlanta.1x09.Jet.Set.ITA.WEBMux.x264-NovaRip.mkv
Format : Matroska
Format version : Version 2
File size : 307 MiB
Duration : 23 min 18 s
Overall bit rate : 1 842 kb/s
Encoded date : UTC 2018-06-02 17:40:18
Writing application : mkvmerge v8.5.2 ('Crosses') 64bit
Writing library : libebml v1.3.3 + libmatroska v1.4.4

Video
ID : 1
Format : AVC
Format/Info : Advanced Video Codec
Format profile : High@L3.1
Format settings : CABAC / 6 Ref Frames
Format settings, CABAC : Yes
Format settings, RefFrames : 6 frames
Codec ID : V_MPEG4/ISO/AVC
Duration : 23 min 18 s
Bit rate : 1 729 kb/s
Width : 720 pixels
Height : 404 pixels
Display aspect ratio : 16:9
Frame rate mode : Constant
Frame rate : 25.000 FPS
Original frame rate : 23.976 (24000/1001) FPS
Color space : YUV
Chroma subsampling : 4:2:0
Bit depth : 8 bits
Scan type : Progressive
Bits/(Pixel*Frame) : 0.238
Stream size : 288 MiB (94%)
Writing library : x264 core 155 r2893 b00bcaf
Encoding settings : cabac=1 / ref=6 / deblock=1:-2:-2 / analyse=0x3:0x133 / me=umh / subme=7 / psy=1 / psy_rd=1.00:0.00 / mixed_ref=1 / me_range=16 / chroma_me=1 / trellis=2 / 8x8dct=1 / cqm=0 / deadzone=21,11 / fast_pskip=0 / chroma_qp_offset=-2 / threads=6 / lookahead_threads=1 / sliced_threads=0 / nr=0 / decimate=1 / interlaced=0 / bluray_compat=0 / constrained_intra=0 / bframes=5 / b_pyramid=2 / b_adapt=2 / b_bias=0 / direct=3 / weightb=1 / open_gop=0 / weightp=2 / keyint=250 / keyint_min=23 / scenecut=40 / intra_refresh=0 / rc_lookahead=40 / rc=crf / mbtree=1 / crf=18.0 / qcomp=0.60 / qpmin=0 / qpmax=69 / qpstep=4 / ip_ratio=1.40 / aq=1:1.00
Language : English
Default : Yes
Forced : Yes

Audio
ID : 2
Format : AAC
Format/Info : Advanced Audio Codec
Format profile : LC
Codec ID : A_AAC-2
Duration : 23 min 17 s
Bit rate : 112 kb/s
Channel(s) : 2 channels
Channel positions : Front: L R
Sampling rate : 48.0 kHz
Frame rate : 46.875 FPS (1024 SPF)
Compression mode : Lossy
Delay relative to video : 9 ms
Stream size : 18.6 MiB (6%)
Title : ITA
Language : Italian
Default : Yes
Forced : Yes

Text
ID : 3
Format : UTF-8
Codec ID : S_TEXT/UTF8
Codec ID/Info : UTF-8 Plain Text
Duration : 2 s 37 ms
Bit rate : 176 b/s
Count of elements : 1
Stream size : 45.0 Bytes (0%)
Title : ITA - Forced
Language : Italian
Default : Yes
Forced : Yes





ATLANTA S01E09


ATLANTA S01E09


ATLANTA S01E09


ATLANTA S01E09


ATLANTA S01E09

All episodes