Featured TV Shows


Atlanta S01E04

Posted By: Tavaz
SD / HDTV IMDb
Atlanta S01E04

Atlanta S01E04
HDTV | AVI | 640x360 | MP4V-ES @ 1709 kbps | MPEG Audio @ 128 kbps | 22 min 22 s | 296 MiB
Genre: Comedy

Two cousins, with different views on art versus commerce, on their way up through the Atlanta rap scene; Earnest 'Earn' Marks, an ambitious college dropout and his estranged cousin, who suddenly becomes a star.

197dc40f6c344533ad2ac84af0ad1bd7.avi (295.6 MB)



General
Complete name : ./197dc40f6c344533ad2ac84af0ad1bd7.avi
Format : AVI
Format/Info : Audio Video Interleave
File size : 296 MiB
Duration : 22 min 22 s
Overall bit rate : 1 847 kb/s
Writing application : VirtualDubMod 1.5.10.2 (build 2542/release)
Writing library : VirtualDubMod build 2542/release

Video
ID : 0
Format : MPEG-4 Visual
Format profile : Simple@L3
Format settings, BVOP : No
Format settings, QPel : No
Format settings, GMC : No warppoints
Format settings, Matrix : Default (H.263)
Codec ID : XVID
Codec ID/Hint : XviD
Duration : 22 min 22 s
Bit rate : 1 709 kb/s
Width : 640 pixels
Height : 360 pixels
Display aspect ratio : 16:9
Frame rate : 23.976 (24000/1001) FPS
Color space : YUV
Chroma subsampling : 4:2:0
Bit depth : 8 bits
Scan type : Progressive
Compression mode : Lossy
Bits/(Pixel*Frame) : 0.309
Stream size : 274 MiB (93%)
Writing library : XviD 64

Audio
ID : 1
Format : MPEG Audio
Format version : Version 1
Format profile : Layer 3
Format settings : Joint stereo / MS Stereo
Mode : Joint stereo
Mode extension : MS Stereo
Codec ID : 55
Codec ID/Hint : MP3
Duration : 22 min 22 s
Bit rate mode : Constant
Bit rate : 128 kb/s
Channel(s) : 2 channels
Sampling rate : 48.0 kHz
Compression mode : Lossy
Stream size : 20.5 MiB (7%)
Alignment : Aligned on interleaves
Interleave, duration : 42 ms (1.00 video frame)
Interleave, preload duration : 504 ms





Atlanta S01E04


Atlanta S01E04


Atlanta S01E04


Atlanta S01E04


Atlanta S01E04

All episodes